  0
SECTION
  2
HEADER
  9
$ACADVER
  1
AC1015
  9
$ACADMAINTVER
 70
     6
  9
$DWGCODEPAGE
  3
ANSI_1252
  9
$INSBASE
 10
0.0
 20
0.0
 30
0.0
  9
$EXTMIN
 10
0.0
 20
0.0
 30
0.0
  9
$EXTMAX
 10
420.0
 20
297.0
 30
0.0
  9
$LIMMIN
 10
0.0
 20
0.0
  9
$LIMMAX
 10
420.0
 20
297.0
  9
$ORTHOMODE
 70
     0
  9
$REGENMODE
 70
     1
  9
$FILLMODE
 70
     1
  9
$QTEXTMODE
 70
     0
  9
$MIRRTEXT
 70
     1
  9
$LTSCALE
 40
1.0
  9
$ATTMODE
 70
     1
  9
$TEXTSIZE
 40
3.5
  9
$TRACEWID
 40
1.0
  9
$TEXTSTYLE
  7
Standard
  9
$CLAYER
  8
0
  9
$CELTYPE
  6
ByLayer
  9
$CECOLOR
 62
   256
  9
$CELTSCALE
 40
1.0
  9
$DISPSILH
 70
     0
  9
$DIMSCALE
 40
1.0
  9
$DIMASZ
 40
3.302
  9
$DIMEXO
 40
1.0
  9
$DIMDLI
 40
3.75
  9
$DIMRND
 40
0.0
  9
$DIMDLE
 40
0.0
  9
$DIMEXE
 40
1.0
  9
$DIMTP
 40
0.0
  9
$DIMTM
 40
0.0
  9
$DIMTXT
 40
3.5
  9
$DIMCEN
 40
2.5
  9
$DIMTSZ
 40
0.0
  9
$DIMTOL
 70
     0
  9
$DIMLIM
 70
     0
  9
$DIMTIH
 70
     1
  9
$DIMTOH
 70
     1
  9
$DIMSE1
 70
     0
  9
$DIMSE2
 70
     0
  9
$DIMTAD
 70
     1
  9
$DIMZIN
 70
     0
  9
$DIMBLK
  1

  9
$DIMASO
 70
     1
  9
$DIMSHO
 70
     1
  9
$DIMPOST
  1

  9
$DIMAPOST
  1

  9
$DIMALT
 70
     0
  9
$DIMALTD
 70
     3
  9
$DIMALTF
 40
0.0393700787
  9
$DIMLFAC
 40
1.0
  9
$DIMTOFL
 70
     1
  9
$DIMTVP
 40
0.0
  9
$DIMTIX
 70
     0
  9
$DIMSOXD
 70
     0
  9
$DIMSAH
 70
     0
  9
$DIMBLK1
  1

  9
$DIMBLK2
  1

  9
$DIMSTYLE
  2
ISO-25
  9
$DIMCLRD
 70
     0
  9
$DIMCLRE
 70
     0
  9
$DIMCLRT
 70
     0
  9
$DIMTFAC
 40
1.0
  9
$DIMGAP
 40
1.524
  9
$DIMJUST
 70
     0
  9
$DIMSD1
 70
     0
  9
$DIMSD2
 70
     0
  9
$DIMTOLJ
 70
     0
  9
$DIMTZIN
 70
     0
  9
$DIMALTZ
 70
     0
  9
$DIMALTTZ
 70
     0
  9
$DIMUPT
 70
     0
  9
$DIMDEC
 70
     2
  9
$DIMTDEC
 70
     2
  9
$DIMALTU
 70
     2
  9
$DIMALTTD
 70
     3
  9
$DIMTXSTY
  7
Standard
  9
$DIMAUNIT
 70
     0
  9
$DIMADEC
 70
     2
  9
$DIMALTRND
 40
0.0
  9
$DIMAZIN
 70
     0
  9
$DIMDSEP
 70
    44
  9
$DIMATFIT
 70
     3
  9
$DIMFRAC
 70
     0
  9
$DIMLDRBLK
  1

  9
$DIMLUNIT
 70
     2
  9
$DIMLWD
 70
    -2
  9
$DIMLWE
 70
    -2
  9
$DIMTMOVE
 70
     0
  9
$LUNITS
 70
     2
  9
$LUPREC
 70
     2
  9
$SKETCHINC
 40
1.0
  9
$FILLETRAD
 40
10.0
  9
$AUNITS
 70
     0
  9
$AUPREC
 70
     2
  9
$MENU
  1
.
  9
$ELEVATION
 40
0.0
  9
$PELEVATION
 40
0.0
  9
$THICKNESS
 40
0.0
  9
$LIMCHECK
 70
     0
  9
$CHAMFERA
 40
10.0
  9
$CHAMFERB
 40
10.0
  9
$CHAMFERC
 40
20.0
  9
$CHAMFERD
 40
0.0
  9
$SKPOLY
 70
     0
  9
$TDCREATE
 40
2455370.427271979
  9
$TDUCREATE
 40
2455370.343938646
  9
$TDUPDATE
 40
2455370.427271991
  9
$TDUUPDATE
 40
2455370.343938658
  9
$TDINDWG
 40
0.0000000116
  9
$TDUSRTIMER
 40
0.0000000116
  9
$USRTIMER
 70
     1
  9
$ANGBASE
 50
0.0
  9
$ANGDIR
 70
     0
  9
$PDMODE
 70
     0
  9
$PDSIZE
 40
-1.0
  9
$PLINEWID
 40
0.0
  9
$SPLFRAME
 70
     0
  9
$SPLINETYPE
 70
     6
  9
$SPLINESEGS
 70
     8
  9
$HANDSEED
  5
2FF
  9
$SURFTAB1
 70
     6
  9
$SURFTAB2
 70
     6
  9
$SURFTYPE
 70
     6
  9
$SURFU
 70
     6
  9
$SURFV
 70
     6
  9
$UCSBASE
  2

  9
$UCSNAME
  2

  9
$UCSORG
 10
0.0
 20
0.0
 30
0.0
  9
$UCSXDIR
 10
1.0
 20
0.0
 30
0.0
  9
$UCSYDIR
 10
0.0
 20
1.0
 30
0.0
  9
$UCSORTHOREF
  2

  9
$UCSORTHOVIEW
 70
     0
  9
$UCSORGTOP
 10
0.0
 20
0.0
 30
0.0
  9
$UCSORGBOTTOM
 10
0.0
 20
0.0
 30
0.0
  9
$UCSORGLEFT
 10
0.0
 20
0.0
 30
0.0
  9
$UCSORGRIGHT
 10
0.0
 20
0.0
 30
0.0
  9
$UCSORGFRONT
 10
0.0
 20
0.0
 30
0.0
  9
$UCSORGBACK
 10
0.0
 20
0.0
 30
0.0
  9
$PUCSBASE
  2

  9
$PUCSNAME
  2

  9
$PUCSORG
 10
0.0
 20
0.0
 30
0.0
  9
$PUCSXDIR
 10
1.0
 20
0.0
 30
0.0
  9
$PUCSYDIR
 10
0.0
 20
1.0
 30
0.0
  9
$PUCSORTHOREF
  2

  9
$PUCSORTHOVIEW
 70
     0
  9
$PUCSORGTOP
 10
0.0
 20
0.0
 30
0.0
  9
$PUCSORGBOTTOM
 10
0.0
 20
0.0
 30
0.0
  9
$PUCSORGLEFT
 10
0.0
 20
0.0
 30
0.0
  9
$PUCSORGRIGHT
 10
0.0
 20
0.0
 30
0.0
  9
$PUCSORGFRONT
 10
0.0
 20
0.0
 30
0.0
  9
$PUCSORGBACK
 10
0.0
 20
0.0
 30
0.0
  9
$USERI1
 70
     0
  9
$USERI2
 70
     0
  9
$USERI3
 70
     0
  9
$USERI4
 70
     0
  9
$USERI5
 70
     0
  9
$USERR1
 40
0.0
  9
$USERR2
 40
0.0
  9
$USERR3
 40
0.0
  9
$USERR4
 40
0.0
  9
$USERR5
 40
0.0
  9
$WORLDVIEW
 70
     1
  9
$SHADEDGE
 70
     3
  9
$SHADEDIF
 70
    70
  9
$TILEMODE
 70
     1
  9
$MAXACTVP
 70
    64
  9
$PINSBASE
 10
0.0
 20
0.0
 30
0.0
  9
$PLIMCHECK
 70
     0
  9
$PEXTMIN
 10
1.0000000000E+20
 20
1.0000000000E+20
 30
1.0000000000E+20
  9
$PEXTMAX
 10
-1.0000000000E+20
 20
-1.0000000000E+20
 30
-1.0000000000E+20
  9
$PLIMMIN
 10
0.0
 20
0.0
  9
$PLIMMAX
 10
420.0
 20
297.0
  9
$UNITMODE
 70
     0
  9
$VISRETAIN
 70
     1
  9
$PLINEGEN
 70
     0
  9
$PSLTSCALE
 70
     1
  9
$TREEDEPTH
 70
  3020
  9
$CMLSTYLE
  2
Standard
  9
$CMLJUST
 70
     0
  9
$CMLSCALE
 40
20.0
  9
$PROXYGRAPHICS
 70
     1
  9
$MEASUREMENT
 70
     1
  9
$CELWEIGHT
370
    -1
  9
$ENDCAPS
280
     0
  9
$JOINSTYLE
280
     0
  9
$LWDISPLAY
290
     1
  9
$INSUNITS
 70
     4
  9
$HYPERLINKBASE
  1

  9
$STYLESHEET
  1

  9
$XEDIT
290
     1
  9
$CEPSNTYPE
380
     0
  9
$PSTYLEMODE
290
     1
  9
$FINGERPRINTGUID
  2
{10319F27-EB00-45DE-AC47-FE1F08E136A1}
  9
$VERSIONGUID
  2
{FAEB1C32-E019-11D5-929B-00C0DF256EC4}
  9
$EXTNAMES
290
     1
  9
$PSVPSCALE
 40
0.0
  9
$OLESTARTUP
290
     0
  0
ENDSEC
  0
SECTION
  2
CLASSES
  0
CLASS
  1
ACDBDICTIONARYWDFLT
  2
AcDbDictionaryWithDefault
  3
ObjectDBX Classes
 90
        0
280
     0
281
     0
  0
CLASS
  1
VISUALSTYLE
  2
AcDbVisualStyle
  3
ObjectDBX Classes
 90
     4095
280
     0
281
     0
  0
CLASS
  1
IMAGEDEF
  2
AcDbRasterImageDef
  3
ISM
 90
        0
280
     0
281
     0
  0
CLASS
  1
IMAGE
  2
AcDbRasterImage
  3
ISM
 90
      127
280
     0
281
     1
  0
CLASS
  1
IMAGEDEF_REACTOR
  2
AcDbRasterImageDefReactor
  3
ISM
 90
        1
280
     0
281
     0
  0
CLASS
  1
SCALE
  2
AcDbScale
  3
ObjectDBX Classes
 90
     1153
280
     0
281
     0
  0
CLASS
  1
DICTIONARYVAR
  2
AcDbDictionaryVar
  3
ObjectDBX Classes
 90
        0
280
     0
281
     0
  0
CLASS
  1
ACDBPLACEHOLDER
  2
AcDbPlaceHolder
  3
ObjectDBX Classes
 90
        0
280
     0
281
     0
  0
CLASS
  1
LAYOUT
  2
AcDbLayout
  3
ObjectDBX Classes
 90
        0
280
     0
281
     0
  0
ENDSEC
  0
SECTION
  2
TABLES
  0
TABLE
  2
VPORT
  5
8
330
0
100
AcDbSymbolTable
 70
     1
  0
VPORT
  5
29
330
8
100
AcDbSymbolTableRecord
100
AcDbViewportTableRecord
  2
*Active
 70
     0
 10
0.0
 20
0.0
 11
1.0
 21
1.0
 12
210.0
 22
148.5
 13
0.0
 23
0.0
 14
10.0
 24
10.0
 15
10.0
 25
10.0
 16
0.0
 26
0.0
 36
1.0
 17
0.0
 27
0.0
 37
0.0
 40
297.0
 41
1.4141414141
 42
50.0
 43
0.0
 44
0.0
 50
0.0
 51
0.0
 71
     0
 72
  2000
 73
     1
 74
     3
 75
     0
 76
     0
 77
     0
 78
     0
281
     0
 65
     1
110
0.0
120
0.0
130
0.0
111
1.0
121
0.0
131
0.0
112
0.0
122
1.0
132
0.0
 79
     0
146
0.0
  0
ENDTAB
  0
TABLE
  2
LTYPE
  5
5
330
0
100
AcDbSymbolTable
 70
     6
  0
LTYPE
  5
14
330
5
100
AcDbSymbolTableRecord
100
AcDbLinetypeTableRecord
  2
ByBlock
 70
     0
  3

 72
    65
 73
     0
 40
0.0
  0
LTYPE
  5
15
330
5
100
AcDbSymbolTableRecord
100
AcDbLinetypeTableRecord
  2
ByLayer
 70
     0
  3

 72
    65
 73
     0
 40
0.0
  0
LTYPE
  5
16
330
5
100
AcDbSymbolTableRecord
100
AcDbLinetypeTableRecord
  2
Continuous
 70
     0
  3
Solid line
 72
    65
 73
     0
 40
0.0
  0
LTYPE
  5
3B
330
5
100
AcDbSymbolTableRecord
100
AcDbLinetypeTableRecord
  2
HIDDEN
 70
     0
  3
Hidden __ __ __ __ __ __ __ __ __ __ __ __ __ __
 72
    65
 73
     2
 40
1.905
 49
1.27
 74
     0
 49
-0.635
 74
     0
  0
LTYPE
  5
3C
330
5
100
AcDbSymbolTableRecord
100
AcDbLinetypeTableRecord
  2
PHANTOM
 70
     0
  3
Phantom ______  __  __  ______  __  __  ______
 72
    65
 73
     6
 40
12.7
 49
6.35
 74
     0
 49
-1.27
 74
     0
 49
1.27
 74
     0
 49
-1.27
 74
     0
 49
1.27
 74
     0
 49
-1.27
 74
     0
  0
LTYPE
  5
3D
330
5
100
AcDbSymbolTableRecord
100
AcDbLinetypeTableRecord
  2
CENTER
 70
     0
  3
Center ____ _ ____ _ ____ _ ____ _ ____ _ ____
 72
    65
 73
     4
 40
10.16
 49
6.35
 74
     0
 49
-1.27
 74
     0
 49
1.27
 74
     0
 49
-1.27
 74
     0
  0
LTYPE
  5
3E
330
5
100
AcDbSymbolTableRecord
100
AcDbLinetypeTableRecord
  2
CENTERX2
 70
     0
  3
Center (2x) ________  __  ________  __  _____
 72
    65
 73
     4
 40
20.32
 49
12.7
 74
     0
 49
-2.54
 74
     0
 49
2.54
 74
     0
 49
-2.54
 74
     0
  0
LTYPE
  5
3F
330
5
100
AcDbSymbolTableRecord
100
AcDbLinetypeTableRecord
  2
DOT2
 70
     0
  3
Dot (.5x) ........................................
 72
    65
 73
     2
 40
0.635
 49
0.0
 74
     0
 49
-0.635
 74
     0
  0
ENDTAB
  0
TABLE
  2
LAYER
  5
2
330
0
100
AcDbSymbolTable
 70
     8
  0
LAYER
  5
10
330
2
100
AcDbSymbolTableRecord
100
AcDbLayerTableRecord
  2
0
 70
     0
 62
     7
  6
Continuous
370
    -3
390
F
  0
LAYER
  5
40
330
2
100
AcDbSymbolTableRecord
100
AcDbLayerTableRecord
  2
SLD-0
 70
     0
 62
     7
  6
Continuous
370
    -3
390
F
  0
LAYER
  5
41
330
2
100
AcDbSymbolTableRecord
100
AcDbLayerTableRecord
  2
CONTORNO
 70
     0
 62
     7
  6
Continuous
370
    30
390
F
  0
LAYER
  5
42
330
2
100
AcDbSymbolTableRecord
100
AcDbLayerTableRecord
  2
RIQUADRO
 70
     0
 62
     5
  6
Continuous
370
    -3
390
F
  0
LAYER
  5
43
330
2
100
AcDbSymbolTableRecord
100
AcDbLayerTableRecord
  2
LOGO
 70
     0
 62
   176
  6
Continuous
370
    -3
390
F
  0
LAYER
  5
44
330
2
100
AcDbSymbolTableRecord
100
AcDbLayerTableRecord
  2
PROIEZ
 70
     0
 62
    16
  6
Continuous
370
    15
390
F
  0
LAYER
  5
45
330
2
100
AcDbSymbolTableRecord
100
AcDbLayerTableRecord
  2
CARTIGLIO
 70
     0
 62
     5
  6
Continuous
370
    -3
390
F
  0
LAYER
  5
46
330
2
100
AcDbSymbolTableRecord
100
AcDbLayerTableRecord
  2
TABELLA_REV
 70
     0
 62
   136
  6
Continuous
370
    -3
390
F
  0
ENDTAB
  0
TABLE
  2
STYLE
  5
3
330
0
100
AcDbSymbolTable
 70
     4
  0
STYLE
  5
11
330
3
100
AcDbSymbolTableRecord
100
AcDbTextStyleTableRecord
  2
Standard
 70
     0
 40
0.0
 41
1.0
 50
0.0
 71
     0
 42
2.5
  3
txt
  4

  0
STYLE
  5
B4
330
3
100
AcDbSymbolTableRecord
100
AcDbTextStyleTableRecord
  2
SLDTEXTSTYLE0
 70
     0
 40
0.0
 41
0.6375
 50
0.0
 71
     0
 42
0.2
  3
TXT
  4

  0
STYLE
  5
DB
330
3
100
AcDbSymbolTableRecord
100
AcDbTextStyleTableRecord
  2
SLDTEXTSTYLE1
 70
     0
 40
0.0
 41
0.75
 50
0.0
 71
     0
 42
0.2
  3
TXT
  4

  0
STYLE
  5
E3
330
3
100
AcDbSymbolTableRecord
100
AcDbTextStyleTableRecord
  2
SLDTEXTSTYLE2
 70
     0
 40
0.0
 41
0.7
 50
0.0
 71
     0
 42
0.2
  3
TXT
  4

  0
ENDTAB
  0
TABLE
  2
VIEW
  5
6
330
0
100
AcDbSymbolTable
 70
     0
  0
ENDTAB
  0
TABLE
  2
UCS
  5
7
330
0
100
AcDbSymbolTable
 70
     0
  0
ENDTAB
  0
TABLE
  2
APPID
  5
9
330
0
100
AcDbSymbolTable
 70
     1
  0
APPID
  5
12
330
9
100
AcDbSymbolTableRecord
100
AcDbRegAppTableRecord
  2
ACAD
 70
     0
  0
ENDTAB
  0
TABLE
  2
DIMSTYLE
  5
A
330
0
100
AcDbSymbolTable
 70
     6
100
AcDbDimStyleTable
  0
DIMSTYLE
105
27
330
A
100
AcDbSymbolTableRecord
100
AcDbDimStyleTableRecord
  2
ISO-25
 70
     0
 41
2.5
 42
0.625
 43
3.75
 44
1.25
 73
     0
 74
     0
 77
     1
 78
     8
140
2.5
141
2.5
143
0.0393700787
147
0.625
171
     3
172
     1
271
     2
272
     2
274
     3
278
    44
283
     0
284
     8
340
11
  0
DIMSTYLE
105
1EE
102
{ACAD_REACTORS
330
1ED
330
1F6
102
}
330
A
100
AcDbSymbolTableRecord
100
AcDbDimStyleTableRecord
  2
SLDDIMSTYLE0
 70
     0
 41
3.302
 44
0.0
 73
     0
 74
     0
 77
     2
 78
    12
140
3.5
147
0.875
173
     1
179
     2
272
     2
284
    12
340
DB
  0
DIMSTYLE
105
201
102
{ACAD_REACTORS
330
200
330
20B
330
215
330
21F
330
229
330
235
330
29A
330
2A4
330
2AE
330
2C7
102
}
330
A
100
AcDbSymbolTableRecord
100
AcDbDimStyleTableRecord
  2
SLDDIMSTYLE1
 70
     0
 41
3.302
 44
0.0
 45
0.000000001
 73
     0
 74
     0
 77
     2
 78
    12
140
3.5
147
0.875
173
     1
271
     2
272
     2
284
    12
340
DB
  0
DIMSTYLE
105
24A
330
A
100
AcDbSymbolTableRecord
100
AcDbDimStyleTableRecord
  2
SLDDIMSTYLE2
 70
     0
 41
3.302
 44
0.0
 45
0.000000001
140
0.0
146
3.302
147
0.0
173
     1
271
     0
272
     0
340
11
  0
DIMSTYLE
105
2BA
102
{ACAD_REACTORS
330
2B9
102
}
330
A
100
AcDbSymbolTableRecord
100
AcDbDimStyleTableRecord
  2
SLDDIMSTYLE3
 70
     0
 41
3.302
 44
0.0
 45
0.000000001
 73
     0
 74
     0
 77
     2
 78
    12
140
3.5
147
0.875
173
     1
271
     2
272
     2
284
    12
340
DB
  0
DIMSTYLE
105
2DD
330
A
100
AcDbSymbolTableRecord
100
AcDbDimStyleTableRecord
  2
SLDDIMSTYLE4
 70
     0
 41
1.016
 44
0.0
 45
0.000000001
140
0.0
146
1.016
147
0.0
173
     1
271
     0
272
     0
340
11
341
2DE
343
2DE
344
2DE
  0
ENDTAB
  0
TABLE
  2
BLOCK_RECORD
  5
1
330
0
100
AcDbSymbolTable
 70
    30
  0
BLOCK_RECORD
  5
1F
330
1
100
AcDbSymbolTableRecord
100
AcDbBlockTableRecord
  2
*Model_Space
340
22
  0
BLOCK_RECORD
  5
1B
330
1
100
AcDbSymbolTableRecord
100
AcDbBlockTableRecord
  2
*Paper_Space
340
1E
  0
BLOCK_RECORD
  5
23
330
1
100
AcDbSymbolTableRecord
100
AcDbBlockTableRecord
  2
*Paper_Space0
340
26
  0
BLOCK_RECORD
  5
DD
330
1
100
AcDbSymbolTableRecord
100
AcDbBlockTableRecord
  2
SW_NOTE_0
340
0
102
{BLKREFS
331
E2
102
}
  0
BLOCK_RECORD
  5
E8
330
1
100
AcDbSymbolTableRecord
100
AcDbBlockTableRecord
  2
SW_NOTE_1
340
0
102
{BLKREFS
331
ED
102
}
  0
BLOCK_RECORD
  5
F2
330
1
100
AcDbSymbolTableRecord
100
AcDbBlockTableRecord
  2
SW_NOTE_2
340
0
102
{BLKREFS
331
F7
102
}
  0
BLOCK_RECORD
  5
F8
330
1
100
AcDbSymbolTableRecord
100
AcDbBlockTableRecord
  2
SW_NOTE_3
340
0
102
{BLKREFS
331
FD
102
}
  0
BLOCK_RECORD
  5
102
330
1
100
AcDbSymbolTableRecord
100
AcDbBlockTableRecord
  2
SW_NOTE_4
340
0
102
{BLKREFS
331
107
102
}
  0
BLOCK_RECORD
  5
108
330
1
100
AcDbSymbolTableRecord
100
AcDbBlockTableRecord
  2
SW_NOTE_5
340
0
102
{BLKREFS
331
10D
102
}
  0
BLOCK_RECORD
  5
10E
330
1
100
AcDbSymbolTableRecord
100
AcDbBlockTableRecord
  2
SW_NOTE_6
340
0
102
{BLKREFS
331
113
102
}
  0
BLOCK_RECORD
  5
114
330
1
100
AcDbSymbolTableRecord
100
AcDbBlockTableRecord
  2
SW_NOTE_7
340
0
102
{BLKREFS
331
119
102
}
  0
BLOCK_RECORD
  5
11A
330
1
100
AcDbSymbolTableRecord
100
AcDbBlockTableRecord
  2
SW_NOTE_8
340
0
102
{BLKREFS
331
11F
102
}
  0
BLOCK_RECORD
  5
120
330
1
100
AcDbSymbolTableRecord
100
AcDbBlockTableRecord
  2
SW_NOTE_9
340
0
102
{BLKREFS
331
125
102
}
  0
BLOCK_RECORD
  5
126
330
1
100
AcDbSymbolTableRecord
100
AcDbBlockTableRecord
  2
SW_NOTE_10
340
0
102
{BLKREFS
331
12B
102
}
  0
BLOCK_RECORD
  5
12C
330
1
100
AcDbSymbolTableRecord
100
AcDbBlockTableRecord
  2
SW_NOTE_11
340
0
102
{BLKREFS
331
131
102
}
  0
BLOCK_RECORD
  5
1EF
330
1
100
AcDbSymbolTableRecord
100
AcDbBlockTableRecord
  2
*D13
340
0
  0
BLOCK_RECORD
  5
1F7
330
1
100
AcDbSymbolTableRecord
100
AcDbBlockTableRecord
  2
*D14
340
0
  0
BLOCK_RECORD
  5
202
330
1
100
AcDbSymbolTableRecord
100
AcDbBlockTableRecord
  2
*D15
340
0
  0
BLOCK_RECORD
  5
20C
330
1
100
AcDbSymbolTableRecord
100
AcDbBlockTableRecord
  2
*D16
340
0
  0
BLOCK_RECORD
  5
216
330
1
100
AcDbSymbolTableRecord
100
AcDbBlockTableRecord
  2
*D17
340
0
  0
BLOCK_RECORD
  5
220
330
1
100
AcDbSymbolTableRecord
100
AcDbBlockTableRecord
  2
*D18
340
0
  0
BLOCK_RECORD
  5
22A
330
1
100
AcDbSymbolTableRecord
100
AcDbBlockTableRecord
  2
*D19
340
0
  0
BLOCK_RECORD
  5
236
330
1
100
AcDbSymbolTableRecord
100
AcDbBlockTableRecord
  2
*D20
340
0
  0
BLOCK_RECORD
  5
23F
330
1
100
AcDbSymbolTableRecord
100
AcDbBlockTableRecord
  2
SW_NOTE_12
340
0
102
{BLKREFS
331
249
102
}
  0
BLOCK_RECORD
  5
29B
330
1
100
AcDbSymbolTableRecord
100
AcDbBlockTableRecord
  2
*D22
340
0
  0
BLOCK_RECORD
  5
2A5
330
1
100
AcDbSymbolTableRecord
100
AcDbBlockTableRecord
  2
*D23
340
0
  0
BLOCK_RECORD
  5
2AF
330
1
100
AcDbSymbolTableRecord
100
AcDbBlockTableRecord
  2
*D24
340
0
  0
BLOCK_RECORD
  5
2BB
330
1
100
AcDbSymbolTableRecord
100
AcDbBlockTableRecord
  2
*D25
340
0
  0
BLOCK_RECORD
  5
2C8
330
1
100
AcDbSymbolTableRecord
100
AcDbBlockTableRecord
  2
*D26
340
0
  0
BLOCK_RECORD
  5
2D2
330
1
100
AcDbSymbolTableRecord
100
AcDbBlockTableRecord
  2
SW_NOTE_13
340
0
102
{BLKREFS
331
2DC
102
}
  0
BLOCK_RECORD
  5
2DE
330
1
100
AcDbSymbolTableRecord
100
AcDbBlockTableRecord
  2
_DOT
340
0
  0
BLOCK_RECORD
  5
2E7
330
1
100
AcDbSymbolTableRecord
100
AcDbBlockTableRecord
  2
SW_NOTE_14
340
0
102
{BLKREFS
331
2F1
102
}
  0
ENDTAB
  0
ENDSEC
  0
SECTION
  2
BLOCKS
  0
BLOCK
  5
20
330
1F
100
AcDbEntity
  8
0
100
AcDbBlockBegin
  2
*Model_Space
 70
     0
 10
0.0
 20
0.0
 30
0.0
  3
*Model_Space
  1

  0
ENDBLK
  5
21
330
1F
100
AcDbEntity
  8
0
100
AcDbBlockEnd
  0
BLOCK
  5
1C
330
1B
100
AcDbEntity
 67
     1
  8
0
100
AcDbBlockBegin
  2
*Paper_Space
 70
     0
 10
0.0
 20
0.0
 30
0.0
  3
*Paper_Space
  1

  0
ENDBLK
  5
1D
330
1B
100
AcDbEntity
 67
     1
  8
0
100
AcDbBlockEnd
  0
BLOCK
  5
24
330
23
100
AcDbEntity
  8
0
100
AcDbBlockBegin
  2
*Paper_Space0
 70
     0
 10
0.0
 20
0.0
 30
0.0
  3
*Paper_Space0
  1

  0
ENDBLK
  5
25
330
23
100
AcDbEntity
  8
0
100
AcDbBlockEnd
  0
BLOCK
  5
DE
330
DD
100
AcDbEntity
  8
0
100
AcDbBlockBegin
  2
SW_NOTE_0
 70
     0
 10
0.0
 20
0.0
 30
0.0
  3
SW_NOTE_0
  1

  0
MTEXT
  5
E0
330
DD
100
AcDbEntity
  8
CARTIGLIO
 62
     0
100
AcDbMText
 10
0.0
 20
5.800804829
 30
0.0
 40
4.5
 41
0.0
 71
     1
 72
     1
  1
19402
  7
SLDTEXTSTYLE1
 73
     1
 44
1.0
  0
MTEXT
  5
E1
330
DD
100
AcDbEntity
  8
CARTIGLIO
 62
     0
100
AcDbMText
 10
16.1273442209
 20
5.800804829
 30
0.0
 40
4.5
 41
0.0
 71
     1
 72
     1
  1
-0-A
  7
SLDTEXTSTYLE1
 73
     1
 44
1.0
  0
ENDBLK
  5
DF
330
DD
100
AcDbEntity
  8
0
100
AcDbBlockEnd
  0
BLOCK
  5
E9
330
E8
100
AcDbEntity
  8
0
100
AcDbBlockBegin
  2
SW_NOTE_1
 70
     0
 10
0.0
 20
0.0
 30
0.0
  3
SW_NOTE_1
  1

  0
MTEXT
  5
EB
330
E8
100
AcDbEntity
  8
CARTIGLIO
 62
     0
100
AcDbMText
 10
0.0
 20
4.5117370892
 30
0.0
 40
3.5
 41
0.0
 71
     1
 72
     1
  1
Pericentric 
  7
SLDTEXTSTYLE1
 73
     1
 44
1.0
  0
MTEXT
  5
EC
330
E8
100
AcDbEntity
  8
CARTIGLIO
 62
     0
100
AcDbMText
 10
0.0
 20
0.0117372829
 30
0.0
 40
3.5
 41
0.0
 71
     1
 72
     1
  1
Boroscope
  7
SLDTEXTSTYLE1
 73
     1
 44
1.0
  0
ENDBLK
  5
EA
330
E8
100
AcDbEntity
  8
0
100
AcDbBlockEnd
  0
BLOCK
  5
F3
330
F2
100
AcDbEntity
  8
0
100
AcDbBlockBegin
  2
SW_NOTE_2
 70
     0
 10
0.0
 20
0.0
 30
0.0
  3
SW_NOTE_2
  1

  0
MTEXT
  5
F5
330
F2
100
AcDbEntity
  8
CARTIGLIO
 62
     0
100
AcDbMText
 10
0.0
 20
2.5781354795
 30
0.0
 40
2.0
 41
0.0
 71
     1
 72
     1
  1
Undimensioned
  7
SLDTEXTSTYLE1
 73
     1
 44
1.0
  0
MTEXT
  5
F6
330
F2
100
AcDbEntity
  8
CARTIGLIO
 62
     0
100
AcDbMText
 10
0.0
 20
-0.4218645465
 30
0.0
 40
2.0
 41
0.0
 71
     1
 72
     1
  1
radii
  7
SLDTEXTSTYLE1
 73
     1
 44
1.0
  0
ENDBLK
  5
F4
330
F2
100
AcDbEntity
  8
0
100
AcDbBlockEnd
  0
BLOCK
  5
F9
330
F8
100
AcDbEntity
  8
0
100
AcDbBlockBegin
  2
SW_NOTE_3
 70
     0
 10
0.0
 20
0.0
 30
0.0
  3
SW_NOTE_3
  1

  0
MTEXT
  5
FB
330
F8
100
AcDbEntity
  8
CARTIGLIO
 62
     0
100
AcDbMText
 10
0.0
 20
2.5781354795
 30
0.0
 40
2.0
 41
0.0
 71
     1
 72
     1
  1
Undimensioned
  7
SLDTEXTSTYLE1
 73
     1
 44
1.0
  0
MTEXT
  5
FC
330
F8
100
AcDbEntity
  8
CARTIGLIO
 62
     0
100
AcDbMText
 10
0.0
 20
-0.4218645465
 30
0.0
 40
2.0
 41
0.0
 71
     1
 72
     1
  1
bevels
  7
SLDTEXTSTYLE1
 73
     1
 44
1.0
  0
ENDBLK
  5
FA
330
F8
100
AcDbEntity
  8
0
100
AcDbBlockEnd
  0
BLOCK
  5
103
330
102
100
AcDbEntity
  8
0
100
AcDbBlockBegin
  2
SW_NOTE_4
 70
     0
 10
0.0
 20
0.0
 30
0.0
  3
SW_NOTE_4
  1

  0
MTEXT
  5
105
330
102
100
AcDbEntity
  8
CARTIGLIO
 62
     0
100
AcDbMText
 10
0.0
 20
2.5781354795
 30
0.0
 40
2.0
 41
0.0
 71
     1
 72
     1
  1
0.5
  7
SLDTEXTSTYLE1
 73
     1
 44
1.0
  0
MTEXT
  5
106
330
102
100
AcDbEntity
  8
CARTIGLIO
 62
     0
100
AcDbMText
 10
0.6940974854
 20
-0.4218645465
 30
0.0
 40
2.0
 41
0.0
 71
     1
 72
     1
  1
÷3
  7
SLDTEXTSTYLE1
 73
     1
 44
1.0
  0
ENDBLK
  5
104
330
102
100
AcDbEntity
  8
0
100
AcDbBlockEnd
  0
BLOCK
  5
109
330
108
100
AcDbEntity
  8
0
100
AcDbBlockBegin
  2
SW_NOTE_5
 70
     0
 10
0.0
 20
0.0
 30
0.0
  3
SW_NOTE_5
  1

  0
MTEXT
  5
10B
330
108
100
AcDbEntity
  8
CARTIGLIO
 62
     0
100
AcDbMText
 10
0.0
 20
2.5781354795
 30
0.0
 40
2.0
 41
0.0
 71
     1
 72
     1
  1
>3÷
  7
SLDTEXTSTYLE1
 73
     1
 44
1.0
  0
MTEXT
  5
10C
330
108
100
AcDbEntity
  8
CARTIGLIO
 62
     0
100
AcDbMText
 10
3.0406248989
 20
-0.4218645465
 30
0.0
 40
2.0
 41
0.0
 71
     1
 72
     1
  1
6
  7
SLDTEXTSTYLE1
 73
     1
 44
1.0
  0
ENDBLK
  5
10A
330
108
100
AcDbEntity
  8
0
100
AcDbBlockEnd
  0
BLOCK
  5
10F
330
10E
100
AcDbEntity
  8
0
100
AcDbBlockBegin
  2
SW_NOTE_6
 70
     0
 10
0.0
 20
0.0
 30
0.0
  3
SW_NOTE_6
  1

  0
MTEXT
  5
111
330
10E
100
AcDbEntity
  8
CARTIGLIO
 62
     0
100
AcDbMText
 10
0.0
 20
2.5781354795
 30
0.0
 40
2.0
 41
0.0
 71
     1
 72
     1
  1
>6÷
  7
SLDTEXTSTYLE1
 73
     1
 44
1.0
  0
MTEXT
  5
112
330
10E
100
AcDbEntity
  8
CARTIGLIO
 62
     0
100
AcDbMText
 10
1.5590279363
 20
-0.4218645465
 30
0.0
 40
2.0
 41
0.0
 71
     1
 72
     1
  1
30
  7
SLDTEXTSTYLE1
 73
     1
 44
1.0
  0
ENDBLK
  5
110
330
10E
100
AcDbEntity
  8
0
100
AcDbBlockEnd
  0
BLOCK
  5
115
330
114
100
AcDbEntity
  8
0
100
AcDbBlockBegin
  2
SW_NOTE_7
 70
     0
 10
0.0
 20
0.0
 30
0.0
  3
SW_NOTE_7
  1

  0
MTEXT
  5
117
330
114
100
AcDbEntity
  8
CARTIGLIO
 62
     0
100
AcDbMText
 10
0.0
 20
2.5781354795
 30
0.0
 40
2.0
 41
0.0
 71
     1
 72
     1
  1
>30÷
  7
SLDTEXTSTYLE1
 73
     1
 44
1.0
  0
MTEXT
  5
118
330
114
100
AcDbEntity
  8
CARTIGLIO
 62
     0
100
AcDbMText
 10
1.6711805947
 20
-0.4218645465
 30
0.0
 40
2.0
 41
0.0
 71
     1
 72
     1
  1
120
  7
SLDTEXTSTYLE1
 73
     1
 44
1.0
  0
ENDBLK
  5
116
330
114
100
AcDbEntity
  8
0
100
AcDbBlockEnd
  0
BLOCK
  5
11B
330
11A
100
AcDbEntity
  8
0
100
AcDbBlockBegin
  2
SW_NOTE_8
 70
     0
 10
0.0
 20
0.0
 30
0.0
  3
SW_NOTE_8
  1

  0
MTEXT
  5
11D
330
11A
100
AcDbEntity
  8
CARTIGLIO
 62
     0
100
AcDbMText
 10
0.0
 20
2.5781354795
 30
0.0
 40
2.0
 41
0.0
 71
     1
 72
     1
  1
>120
  7
SLDTEXTSTYLE1
 73
     1
 44
1.0
  0
MTEXT
  5
11E
330
11A
100
AcDbEntity
  8
CARTIGLIO
 62
     0
100
AcDbMText
 10
0.030208379
 20
-0.4218645465
 30
0.0
 40
2.0
 41
0.0
 71
     1
 72
     1
  1
÷400
  7
SLDTEXTSTYLE1
 73
     1
 44
1.0
  0
ENDBLK
  5
11C
330
11A
100
AcDbEntity
  8
0
100
AcDbBlockEnd
  0
BLOCK
  5
121
330
120
100
AcDbEntity
  8
0
100
AcDbBlockBegin
  2
SW_NOTE_9
 70
     0
 10
0.0
 20
0.0
 30
0.0
  3
SW_NOTE_9
  1

  0
MTEXT
  5
123
330
120
100
AcDbEntity
  8
CARTIGLIO
 62
     0
100
AcDbMText
 10
0.0
 20
2.5781354795
 30
0.0
 40
2.0
 41
0.0
 71
     1
 72
     1
  1
>400÷
  7
SLDTEXTSTYLE1
 73
     1
 44
1.0
  0
MTEXT
  5
124
330
120
100
AcDbEntity
  8
CARTIGLIO
 62
     0
100
AcDbMText
 10
1.6774307005
 20
-0.4218645465
 30
0.0
 40
2.0
 41
0.0
 71
     1
 72
     1
  1
1000
  7
SLDTEXTSTYLE1
 73
     1
 44
1.0
  0
ENDBLK
  5
122
330
120
100
AcDbEntity
  8
0
100
AcDbBlockEnd
  0
BLOCK
  5
127
330
126
100
AcDbEntity
  8
0
100
AcDbBlockBegin
  2
SW_NOTE_10
 70
     0
 10
0.0
 20
0.0
 30
0.0
  3
SW_NOTE_10
  1

  0
MTEXT
  5
129
330
126
100
AcDbEntity
  8
CARTIGLIO
 62
     0
100
AcDbMText
 10
0.0
 20
2.5781354795
 30
0.0
 40
2.0
 41
0.0
 71
     1
 72
     1
  1
>1000
  7
SLDTEXTSTYLE1
 73
     1
 44
1.0
  0
MTEXT
  5
12A
330
126
100
AcDbEntity
  8
CARTIGLIO
 62
     0
100
AcDbMText
 10
0.0361115672
 20
-0.4218645465
 30
0.0
 40
2.0
 41
0.0
 71
     1
 72
     1
  1
÷2000
  7
SLDTEXTSTYLE1
 73
     1
 44
1.0
  0
ENDBLK
  5
128
330
126
100
AcDbEntity
  8
0
100
AcDbBlockEnd
  0
BLOCK
  5
12D
330
12C
100
AcDbEntity
  8
0
100
AcDbBlockBegin
  2
SW_NOTE_11
 70
     0
 10
0.0
 20
0.0
 30
0.0
  3
SW_NOTE_11
  1

  0
MTEXT
  5
12F
330
12C
100
AcDbEntity
  8
CARTIGLIO
 62
     0
100
AcDbMText
 10
0.0
 20
2.5781354795
 30
0.0
 40
2.0
 41
0.0
 71
     1
 72
     1
  1
>2000
  7
SLDTEXTSTYLE1
 73
     1
 44
1.0
  0
MTEXT
  5
130
330
12C
100
AcDbEntity
  8
CARTIGLIO
 62
     0
100
AcDbMText
 10
0.1322915778
 20
-0.4218645465
 30
0.0
 40
2.0
 41
0.0
 71
     1
 72
     1
  1
÷4000
  7
SLDTEXTSTYLE1
 73
     1
 44
1.0
  0
ENDBLK
  5
12E
330
12C
100
AcDbEntity
  8
0
100
AcDbBlockEnd
  0
BLOCK
  5
1F0
330
1EF
100
AcDbEntity
  8
0
100
AcDbBlockBegin
  2
*D13
 70
     1
 10
0.0
 20
0.0
 30
0.0
  3
*D13
  1

  0
ARC
  5
1F2
330
1EF
100
AcDbEntity
  8
RIQUADRO
100
AcDbCircle
 10
183.7723469808
 20
176.3897724742
 30
0.0
 40
77.6057034179271
100
AcDbArc
 50
67.5
 51
90.0
  0
SOLID
  5
1F3
330
1EF
100
AcDbEntity
  8
RIQUADRO
100
AcDbTrace
 10
213.4707639358
 20
248.0880934682
 30
0.0
 11
210.5783202832
 21
249.7599300978
 31
0.0
 12
210.2095575345
 22
248.8132147049
 32
0.0
 13
210.2095575345
 23
248.8132147049
 33
0.0
  0
SOLID
  5
1F4
330
1EF
100
AcDbEntity
  8
RIQUADRO
100
AcDbTrace
 10
183.7723469808
 20
253.9954758921
 30
0.0
 11
187.06280071
 21
253.417390902
 31
0.0
 12
187.0844006502
 22
254.433161271
 32
0.0
 13
187.0844006502
 23
254.433161271
 33
0.0
  0
MTEXT
  5
1F5
330
1EF
100
AcDbEntity
  8
RIQUADRO
100
AcDbMText
 10
194.18798684
 20
258.1231931607
 30
0.0
 40
3.5
 41
0.0
 71
     1
 72
     1
  1
22,50°
  7
SLDTEXTSTYLE1
 11
0.9782871908722959
 21
-0.2072538833778323
 31
0.0
 73
     1
 44
1.0
  0
ENDBLK
  5
1F1
330
1EF
100
AcDbEntity
  8
0
100
AcDbBlockEnd
  0
BLOCK
  5
1F8
330
1F7
100
AcDbEntity
  8
0
100
AcDbBlockBegin
  2
*D14
 70
     1
 10
0.0
 20
0.0
 30
0.0
  3
*D14
  1

  0
ARC
  5
1FA
330
1F7
100
AcDbEntity
  8
RIQUADRO
100
AcDbCircle
 10
183.7723469808
 20
177.9866823496
 30
0.0
 40
94.19408505328116
100
AcDbArc
 50
90.0
 51
127.5
  0
SOLID
  5
1FB
330
1F7
100
AcDbEntity
  8
RIQUADRO
100
AcDbTrace
 10
183.7723469808
 20
272.1807674029
 30
0.0
 11
180.4619538287
 21
272.6308398183
 31
0.0
 12
180.4797537109
 22
271.6149957534
 32
0.0
 13
180.4797537109
 23
271.6149957534
 33
0.0
  0
SOLID
  5
1FC
330
1F7
100
AcDbEntity
  8
RIQUADRO
100
AcDbTrace
 10
126.4306211595
 20
252.7158743623
 30
0.0
 11
129.3872309862
 21
254.2714213185
 31
0.0
 12
128.7829458976
 22
255.0881804823
 32
0.0
 13
128.7829458976
 23
255.0881804823
 33
0.0
  0
LINE
  5
1FD
330
1F7
100
AcDbEntity
  8
RIQUADRO
100
AcDbLine
 10
183.7723469808
 20
261.6480663276
 30
0.0
 11
183.7723469808
 21
273.1807674029
 31
0.0
  0
LINE
  5
1FE
330
1F7
100
AcDbEntity
  8
RIQUADRO
100
AcDbLine
 10
126.8409439941
 20
252.1811312333
 30
0.0
 11
125.8218597305
 21
253.5092277026
 31
0.0
  0
MTEXT
  5
1FF
330
1F7
100
AcDbEntity
  8
RIQUADRO
100
AcDbMText
 10
129.5758176768
 20
260.7582904395
 30
0.0
 40
3.5
 41
0.0
 71
     1
 72
     1
  1
37,50°
  7
SLDTEXTSTYLE1
 11
0.8720391578902407
 21
0.4894361113629438
 31
0.0
 73
     1
 44
1.0
  0
ENDBLK
  5
1F9
330
1F7
100
AcDbEntity
  8
0
100
AcDbBlockEnd
  0
BLOCK
  5
203
330
202
100
AcDbEntity
  8
0
100
AcDbBlockBegin
  2
*D15
 70
     1
 10
0.0
 20
0.0
 30
0.0
  3
*D15
  1

  0
SOLID
  5
205
330
202
100
AcDbEntity
  8
RIQUADRO
100
AcDbTrace
 10
235.8564303864
 20
247.2925969803
 30
0.0
 11
235.3484303864
 21
243.9905969803
 31
0.0
 12
236.3644303864
 22
243.9905969803
 32
0.0
 13
236.3644303864
 23
243.9905969803
 33
0.0
  0
SOLID
  5
206
330
202
100
AcDbEntity
  8
RIQUADRO
100
AcDbTrace
 10
235.8564303864
 20
97.2925969803
 30
0.0
 11
236.3644303864
 21
100.5945969803
 31
0.0
 12
235.3484303864
 22
100.5945969803
 32
0.0
 13
235.3484303864
 23
100.5945969803
 33
0.0
  0
LINE
  5
207
330
202
100
AcDbEntity
  8
RIQUADRO
100
AcDbLine
 10
226.0518264248
 20
247.2925969803
 30
0.0
 11
236.8564303864
 21
247.2925969803
 31
0.0
  0
LINE
  5
208
330
202
100
AcDbEntity
  8
RIQUADRO
100
AcDbLine
 10
226.0518264248
 20
97.2925969803
 30
0.0
 11
236.8564303864
 21
97.2925969803
 31
0.0
  0
LINE
  5
209
330
202
100
AcDbEntity
  8
RIQUADRO
100
AcDbLine
 10
235.8564303864
 20
247.2925969803
 30
0.0
 11
235.8564303864
 21
97.2925969803
 31
0.0
  0
MTEXT
  5
20A
330
202
100
AcDbEntity
  8
RIQUADRO
100
AcDbMText
 10
231.3446934718
 20
168.1090504231
 30
0.0
 40
3.5
 41
0.0
 71
     1
 72
     1
  1
150
  7
SLDTEXTSTYLE1
 11
-7.044195017643634E-15
 21
1.0
 31
0.0
 73
     1
 44
1.0
  0
ENDBLK
  5
204
330
202
100
AcDbEntity
  8
0
100
AcDbBlockEnd
  0
BLOCK
  5
20D
330
20C
100
AcDbEntity
  8
0
100
AcDbBlockBegin
  2
*D16
 70
     1
 10
0.0
 20
0.0
 30
0.0
  3
*D16
  1

  0
SOLID
  5
20F
330
20C
100
AcDbEntity
  8
RIQUADRO
100
AcDbTrace
 10
229.8564303864
 20
222.2925969803
 30
0.0
 11
229.3484303864
 21
218.9905969803
 31
0.0
 12
230.3644303864
 22
218.9905969803
 32
0.0
 13
230.3644303864
 23
218.9905969803
 33
0.0
  0
SOLID
  5
210
330
20C
100
AcDbEntity
  8
RIQUADRO
100
AcDbTrace
 10
229.8564303864
 20
122.2925969803
 30
0.0
 11
230.3644303864
 21
125.5945969803
 31
0.0
 12
229.3484303864
 22
125.5945969803
 32
0.0
 13
229.3484303864
 23
125.5945969803
 33
0.0
  0
LINE
  5
211
330
20C
100
AcDbEntity
  8
RIQUADRO
100
AcDbLine
 10
211.9447083242
 20
222.2925969803
 30
0.0
 11
230.8564303864
 21
222.2925969803
 31
0.0
  0
LINE
  5
212
330
20C
100
AcDbEntity
  8
RIQUADRO
100
AcDbLine
 10
211.9447083242
 20
122.2925969803
 30
0.0
 11
230.8564303864
 21
122.2925969803
 31
0.0
  0
LINE
  5
213
330
20C
100
AcDbEntity
  8
RIQUADRO
100
AcDbLine
 10
229.8564303864
 20
222.2925969803
 30
0.0
 11
229.8564303864
 21
122.2925969803
 31
0.0
  0
MTEXT
  5
214
330
20C
100
AcDbEntity
  8
RIQUADRO
100
AcDbMText
 10
225.3446934718
 20
168.1090504231
 30
0.0
 40
3.5
 41
0.0
 71
     1
 72
     1
  1
100
  7
SLDTEXTSTYLE1
 11
-7.044195017643634E-15
 21
1.0
 31
0.0
 73
     1
 44
1.0
  0
ENDBLK
  5
20E
330
20C
100
AcDbEntity
  8
0
100
AcDbBlockEnd
  0
BLOCK
  5
217
330
216
100
AcDbEntity
  8
0
100
AcDbBlockBegin
  2
*D17
 70
     1
 10
0.0
 20
0.0
 30
0.0
  3
*D17
  1

  0
SOLID
  5
219
330
216
100
AcDbEntity
  8
RIQUADRO
100
AcDbTrace
 10
221.7766639075
 20
209.7925969803
 30
0.0
 11
221.2686639075
 21
206.4905969803
 31
0.0
 12
222.2846639075
 22
206.4905969803
 32
0.0
 13
222.2846639075
 23
206.4905969803
 33
0.0
  0
SOLID
  5
21A
330
216
100
AcDbEntity
  8
RIQUADRO
100
AcDbTrace
 10
221.7766639075
 20
134.7925969803
 30
0.0
 11
222.2846639075
 21
138.0945969803
 31
0.0
 12
221.2686639075
 22
138.0945969803
 32
0.0
 13
221.2686639075
 23
138.0945969803
 33
0.0
  0
LINE
  5
21B
330
216
100
AcDbEntity
  8
RIQUADRO
100
AcDbLine
 10
211.9447083242
 20
209.7925969803
 30
0.0
 11
222.7766639075
 21
209.7925969803
 31
0.0
  0
LINE
  5
21C
330
216
100
AcDbEntity
  8
RIQUADRO
100
AcDbLine
 10
211.9447083242
 20
134.7925969803
 30
0.0
 11
222.7766639075
 21
134.7925969803
 31
0.0
  0
LINE
  5
21D
330
216
100
AcDbEntity
  8
RIQUADRO
100
AcDbLine
 10
221.7766639075
 20
209.7925969803
 30
0.0
 11
221.7766639075
 21
134.7925969803
 31
0.0
  0
MTEXT
  5
21E
330
216
100
AcDbEntity
  8
RIQUADRO
100
AcDbMText
 10
217.2649269929
 20
167.7018144222
 30
0.0
 40
3.5
 41
0.0
 71
     1
 72
     1
  1
75
  7
SLDTEXTSTYLE1
 11
-7.044195017643634E-15
 21
1.0
 31
0.0
 73
     1
 44
1.0
  0
ENDBLK
  5
218
330
216
100
AcDbEntity
  8
0
100
AcDbBlockEnd
  0
BLOCK
  5
221
330
220
100
AcDbEntity
  8
0
100
AcDbBlockBegin
  2
*D18
 70
     1
 10
0.0
 20
0.0
 30
0.0
  3
*D18
  1

  0
SOLID
  5
223
330
220
100
AcDbEntity
  8
RIQUADRO
100
AcDbTrace
 10
211.8564303864
 20
189.7925969803
 30
0.0
 11
211.3484303864
 21
186.4905969803
 31
0.0
 12
212.3644303864
 22
186.4905969803
 32
0.0
 13
212.3644303864
 23
186.4905969803
 33
0.0
  0
SOLID
  5
224
330
220
100
AcDbEntity
  8
RIQUADRO
100
AcDbTrace
 10
211.8564303864
 20
154.7925969803
 30
0.0
 11
212.3644303864
 21
158.0945969803
 31
0.0
 12
211.3484303864
 22
158.0945969803
 32
0.0
 13
211.3484303864
 23
158.0945969803
 33
0.0
  0
LINE
  5
225
330
220
100
AcDbEntity
  8
RIQUADRO
100
AcDbLine
 10
207.2804119724
 20
189.7925969803
 30
0.0
 11
212.8564303864
 21
189.7925969803
 31
0.0
  0
LINE
  5
226
330
220
100
AcDbEntity
  8
RIQUADRO
100
AcDbLine
 10
207.2804119724
 20
154.7925969803
 30
0.0
 11
212.8564303864
 21
154.7925969803
 31
0.0
  0
LINE
  5
227
330
220
100
AcDbEntity
  8
RIQUADRO
100
AcDbLine
 10
211.8564303864
 20
189.7925969803
 30
0.0
 11
211.8564303864
 21
154.7925969803
 31
0.0
  0
MTEXT
  5
228
330
220
100
AcDbEntity
  8
RIQUADRO
100
AcDbMText
 10
207.3446934718
 20
167.7018144222
 30
0.0
 40
3.5
 41
0.0
 71
     1
 72
     1
  1
35
  7
SLDTEXTSTYLE1
 11
-7.044195017643634E-15
 21
1.0
 31
0.0
 73
     1
 44
1.0
  0
ENDBLK
  5
222
330
220
100
AcDbEntity
  8
0
100
AcDbBlockEnd
  0
BLOCK
  5
22B
330
22A
100
AcDbEntity
  8
0
100
AcDbBlockBegin
  2
*D19
 70
     1
 10
0.0
 20
0.0
 30
0.0
  3
*D19
  1

  0
SOLID
  5
22D
330
22A
100
AcDbEntity
  8
RIQUADRO
100
AcDbTrace
 10
32.5003451361
 20
156.3104380666
 30
0.0
 11
33.0083451361
 21
159.6124380666
 31
0.0
 12
31.9923451361
 22
159.6124380666
 32
0.0
 13
31.9923451361
 23
159.6124380666
 33
0.0
  0
SOLID
  5
22E
330
22A
100
AcDbEntity
  8
RIQUADRO
100
AcDbTrace
 10
32.5003451361
 20
188.3104380666
 30
0.0
 11
31.9923451361
 21
185.0084380666
 31
0.0
 12
33.0083451361
 22
185.0084380666
 32
0.0
 13
33.0083451361
 23
185.0084380666
 33
0.0
  0
LINE
  5
22F
330
22A
100
AcDbEntity
  8
RIQUADRO
100
AcDbLine
 10
31.2831223864
 20
156.3104380666
 30
0.0
 11
33.5003451361
 21
156.3104380666
 31
0.0
  0
LINE
  5
230
330
22A
100
AcDbEntity
  8
RIQUADRO
100
AcDbLine
 10
27.8341702356
 20
188.3104380666
 30
0.0
 11
33.5003451361
 21
188.3104380666
 31
0.0
  0
LINE
  5
231
330
22A
100
AcDbEntity
  8
RIQUADRO
100
AcDbLine
 10
32.5003451361
 20
156.3104380666
 30
0.0
 11
32.5003451361
 21
188.3104380666
 31
0.0
  0
LINE
  5
232
330
22A
100
AcDbEntity
  8
RIQUADRO
100
AcDbLine
 10
32.5003451361
 20
188.3104380666
 30
0.0
 11
32.5003451361
 21
220.0932634961
 31
0.0
  0
MTEXT
  5
233
330
22A
100
AcDbEntity
  8
RIQUADRO
100
AcDbMText
 10
27.9886080469
 20
208.062638535
 30
0.0
 40
3.5
 41
0.0
 71
     1
 72
     1
  1
%%c
  7
SLDTEXTSTYLE1
 11
6.123233995736766E-17
 21
1.0
 31
0.0
 73
     1
 44
1.0
  0
MTEXT
  5
234
330
22A
100
AcDbEntity
  8
RIQUADRO
100
AcDbMText
 10
27.9886082215
 20
213.3404224151
 30
0.0
 40
3.5
 41
0.0
 71
     1
 72
     1
  1
32
  7
SLDTEXTSTYLE1
 11
6.123233995736766E-17
 21
1.0
 31
0.0
 73
     1
 44
1.0
  0
ENDBLK
  5
22C
330
22A
100
AcDbEntity
  8
0
100
AcDbBlockEnd
  0
BLOCK
  5
237
330
236
100
AcDbEntity
  8
0
100
AcDbBlockBegin
  2
*D20
 70
     1
 10
0.0
 20
0.0
 30
0.0
  3
*D20
  1

  0
SOLID
  5
239
330
236
100
AcDbEntity
  8
RIQUADRO
100
AcDbTrace
 10
61.4264067306
 20
151.1839946617
 30
0.0
 11
64.7284067306
 21
150.6759946617
 31
0.0
 12
64.7284067306
 22
151.6919946617
 32
0.0
 13
64.7284067306
 23
151.6919946617
 33
0.0
  0
SOLID
  5
23A
330
236
100
AcDbEntity
  8
RIQUADRO
100
AcDbTrace
 10
189.8564303864
 20
151.1839946617
 30
0.0
 11
186.5544303864
 21
151.6919946617
 31
0.0
 12
186.5544303864
 22
150.6759946617
 32
0.0
 13
186.5544303864
 23
150.6759946617
 33
0.0
  0
LINE
  5
23B
330
236
100
AcDbEntity
  8
RIQUADRO
100
AcDbLine
 10
61.4264067306
 20
161.3145345142
 30
0.0
 11
61.4264067306
 21
150.1839946617
 31
0.0
  0
LINE
  5
23C
330
236
100
AcDbEntity
  8
RIQUADRO
100
AcDbLine
 10
189.8564303864
 20
161.3104380666
 30
0.0
 11
189.8564303864
 21
150.1839946617
 31
0.0
  0
LINE
  5
23D
330
236
100
AcDbEntity
  8
RIQUADRO
100
AcDbLine
 10
61.4264067306
 20
151.1839946617
 30
0.0
 11
189.8564303864
 21
151.1839946617
 31
0.0
  0
MTEXT
  5
23E
330
236
100
AcDbEntity
  8
RIQUADRO
100
AcDbMText
 10
117.9629851914
 20
155.6957315763
 30
0.0
 40
3.5
 41
0.0
 71
     1
 72
     1
  1
128,43
  7
SLDTEXTSTYLE1
 73
     1
 44
1.0
  0
ENDBLK
  5
238
330
236
100
AcDbEntity
  8
0
100
AcDbBlockEnd
  0
BLOCK
  5
240
330
23F
100
AcDbEntity
  8
0
100
AcDbBlockBegin
  2
SW_NOTE_12
 70
     0
 10
0.0
 20
0.0
 30
0.0
  3
SW_NOTE_12
  1

  0
LINE
  5
242
330
23F
100
AcDbEntity
  8
RIQUADRO
 62
     0
100
AcDbLine
 10
0.0
 20
0.0
 30
0.0
 11
66.6645244824
 21
0.0
 31
0.0
  0
LINE
  5
243
330
23F
100
AcDbEntity
  8
RIQUADRO
 62
     0
100
AcDbLine
 10
66.6645244824
 20
0.0
 30
0.0
 11
0.0
 21
0.0
 31
0.0
  0
LINE
  5
244
330
23F
100
AcDbEntity
  8
RIQUADRO
 62
     0
100
AcDbLine
 10
0.0
 20
0.0
 30
0.0
 11
66.6645244824
 21
0.0
 31
0.0
  0
LINE
  5
245
330
23F
100
AcDbEntity
  8
RIQUADRO
 62
     0
100
AcDbLine
 10
66.6645244824
 20
0.0
 30
0.0
 11
0.0
 21
0.0
 31
0.0
  0
LINE
  5
246
330
23F
100
AcDbEntity
  8
RIQUADRO
 62
     0
100
AcDbLine
 10
0.0
 20
0.0
 30
0.0
 11
66.6645244824
 21
0.0
 31
0.0
  0
LINE
  5
247
330
23F
100
AcDbEntity
  8
RIQUADRO
 62
     0
100
AcDbLine
 10
66.6645244824
 20
0.0
 30
0.0
 11
0.0
 21
0.0
 31
0.0
  0
MTEXT
  5
248
330
23F
100
AcDbEntity
  8
RIQUADRO
 62
     0
100
AcDbMText
 10
0.0042309607
 20
4.1368530845
 30
0.0
 40
3.5
 41
0.0
 71
     1
 72
     1
  1
Cables to power supply (24V)
  7
SLDTEXTSTYLE1
 73
     1
 44
1.0
  0
ENDBLK
  5
241
330
23F
100
AcDbEntity
  8
0
100
AcDbBlockEnd
  0
BLOCK
  5
29C
330
29B
100
AcDbEntity
  8
0
100
AcDbBlockBegin
  2
*D22
 70
     1
 10
0.0
 20
0.0
 30
0.0
  3
*D22
  1

  0
SOLID
  5
29E
330
29B
100
AcDbEntity
  8
RIQUADRO
100
AcDbTrace
 10
189.8564303864
 20
71.8730531901
 30
0.0
 11
186.5544303864
 21
72.3810531901
 31
0.0
 12
186.5544303864
 22
71.3650531901
 32
0.0
 13
186.5544303864
 23
71.3650531901
 33
0.0
  0
SOLID
  5
29F
330
29B
100
AcDbEntity
  8
RIQUADRO
100
AcDbTrace
 10
22.7831223864
 20
71.8730531901
 30
0.0
 11
26.0851223864
 21
71.3650531901
 31
0.0
 12
26.0851223864
 22
72.3810531901
 32
0.0
 13
26.0851223864
 23
72.3810531901
 33
0.0
  0
LINE
  5
2A0
330
29B
100
AcDbEntity
  8
RIQUADRO
100
AcDbLine
 10
189.8564303864
 20
98.8730531901
 30
0.0
 11
189.8564303864
 21
70.8730531901
 31
0.0
  0
LINE
  5
2A1
330
29B
100
AcDbEntity
  8
RIQUADRO
100
AcDbLine
 10
22.7831223864
 20
94.3730531901
 30
0.0
 11
22.7831223864
 21
70.8730531901
 31
0.0
  0
LINE
  5
2A2
330
29B
100
AcDbEntity
  8
RIQUADRO
100
AcDbLine
 10
189.8564303864
 20
71.8730531901
 30
0.0
 11
22.7831223864
 21
71.8730531901
 31
0.0
  0
MTEXT
  5
2A3
330
29B
100
AcDbEntity
  8
RIQUADRO
100
AcDbMText
 10
105.1204861718
 20
76.3847901047
 30
0.0
 40
3.5
 41
0.0
 71
     1
 72
     1
  1
167,07
  7
SLDTEXTSTYLE1
 73
     1
 44
1.0
  0
ENDBLK
  5
29D
330
29B
100
AcDbEntity
  8
0
100
AcDbBlockEnd
  0
BLOCK
  5
2A6
330
2A5
100
AcDbEntity
  8
0
100
AcDbBlockBegin
  2
*D23
 70
     1
 10
0.0
 20
0.0
 30
0.0
  3
*D23
  1

  0
SOLID
  5
2A8
330
2A5
100
AcDbEntity
  8
RIQUADRO
100
AcDbTrace
 10
189.8564303864
 20
65.8730531901
 30
0.0
 11
186.5544303864
 21
66.3810531901
 31
0.0
 12
186.5544303864
 22
65.3650531901
 32
0.0
 13
186.5544303864
 23
65.3650531901
 33
0.0
  0
SOLID
  5
2A9
330
2A5
100
AcDbEntity
  8
RIQUADRO
100
AcDbTrace
 10
18.7831223864
 20
65.8730531901
 30
0.0
 11
22.0851223864
 21
65.3650531901
 31
0.0
 12
22.0851223864
 22
66.3810531901
 32
0.0
 13
22.0851223864
 23
66.3810531901
 33
0.0
  0
LINE
  5
2AA
330
2A5
100
AcDbEntity
  8
RIQUADRO
100
AcDbLine
 10
189.8564303864
 20
98.8730531901
 30
0.0
 11
189.8564303864
 21
64.8730531901
 31
0.0
  0
LINE
  5
2AB
330
2A5
100
AcDbEntity
  8
RIQUADRO
100
AcDbLine
 10
18.7831223864
 20
96.1730531901
 30
0.0
 11
18.7831223864
 21
64.8730531901
 31
0.0
  0
LINE
  5
2AC
330
2A5
100
AcDbEntity
  8
RIQUADRO
100
AcDbLine
 10
189.8564303864
 20
65.8730531901
 30
0.0
 11
18.7831223864
 21
65.8730531901
 31
0.0
  0
MTEXT
  5
2AD
330
2A5
100
AcDbEntity
  8
RIQUADRO
100
AcDbMText
 10
105.1204861718
 20
70.3847901047
 30
0.0
 40
3.5
 41
0.0
 71
     1
 72
     1
  1
171,07
  7
SLDTEXTSTYLE1
 73
     1
 44
1.0
  0
ENDBLK
  5
2A7
330
2A5
100
AcDbEntity
  8
0
100
AcDbBlockEnd
  0
BLOCK
  5
2B0
330
2AF
100
AcDbEntity
  8
0
100
AcDbBlockBegin
  2
*D24
 70
     1
 10
0.0
 20
0.0
 30
0.0
  3
*D24
  1

  0
SOLID
  5
2B2
330
2AF
100
AcDbEntity
  8
RIQUADRO
100
AcDbTrace
 10
20.8380398183
 20
122.5730531901
 30
0.0
 11
20.3300398183
 21
119.2710531901
 31
0.0
 12
21.3460398183
 22
119.2710531901
 32
0.0
 13
21.3460398183
 23
119.2710531901
 33
0.0
  0
SOLID
  5
2B3
330
2AF
100
AcDbEntity
  8
RIQUADRO
100
AcDbTrace
 10
20.8380398183
 20
97.1730531901
 30
0.0
 11
21.3460398183
 21
100.4750531901
 31
0.0
 12
20.3300398183
 22
100.4750531901
 32
0.0
 13
20.3300398183
 23
100.4750531901
 33
0.0
  0
LINE
  5
2B4
330
2AF
100
AcDbEntity
  8
RIQUADRO
100
AcDbLine
 10
19.7831223864
 20
122.5730531901
 30
0.0
 11
21.8380398183
 21
122.5730531901
 31
0.0
  0
LINE
  5
2B5
330
2AF
100
AcDbEntity
  8
RIQUADRO
100
AcDbLine
 10
19.7831223864
 20
97.1730531901
 30
0.0
 11
21.8380398183
 21
97.1730531901
 31
0.0
  0
LINE
  5
2B6
330
2AF
100
AcDbEntity
  8
RIQUADRO
100
AcDbLine
 10
20.8380398183
 20
122.5730531901
 30
0.0
 11
20.8380398183
 21
147.4328239302
 31
0.0
  0
LINE
  5
2B7
330
2AF
100
AcDbEntity
  8
RIQUADRO
100
AcDbLine
 10
20.8380398183
 20
122.5730531901
 30
0.0
 11
20.8380398183
 21
97.1730531901
 31
0.0
  0
MTEXT
  5
2B8
330
2AF
100
AcDbEntity
  8
RIQUADRO
100
AcDbMText
 10
16.3263029037
 20
125.90078245
 30
0.0
 40
3.5
 41
0.0
 71
     1
 72
     1
  1
C-Mount
  7
SLDTEXTSTYLE1
 11
-7.044195017643634E-15
 21
1.0
 31
0.0
 73
     1
 44
1.0
  0
ENDBLK
  5
2B1
330
2AF
100
AcDbEntity
  8
0
100
AcDbBlockEnd
  0
BLOCK
  5
2BC
330
2BB
100
AcDbEntity
  8
0
100
AcDbBlockBegin
  2
*D25
 70
     1
 10
0.0
 20
0.0
 30
0.0
  3
*D25
  1

  0
SOLID
  5
2BE
330
2BB
100
AcDbEntity
  8
RIQUADRO
100
AcDbTrace
 10
202.6640415719
 20
119.8730531901
 30
0.0
 11
203.1720415719
 21
123.1750531901
 31
0.0
 12
202.1560415719
 22
123.1750531901
 32
0.0
 13
202.1560415719
 23
123.1750531901
 33
0.0
  0
SOLID
  5
2BF
330
2BB
100
AcDbEntity
  8
RIQUADRO
100
AcDbTrace
 10
202.6640415719
 20
99.8730531901
 30
0.0
 11
202.1560415719
 21
96.5710531901
 31
0.0
 12
203.1720415719
 22
96.5710531901
 32
0.0
 13
203.1720415719
 23
96.5710531901
 33
0.0
  0
LINE
  5
2C0
330
2BB
100
AcDbEntity
  8
RIQUADRO
100
AcDbLine
 10
188.8564303864
 20
119.8730531901
 30
0.0
 11
203.6640415719
 21
119.8730531901
 31
0.0
  0
LINE
  5
2C1
330
2BB
100
AcDbEntity
  8
RIQUADRO
100
AcDbLine
 10
188.8564303864
 20
99.8730531901
 30
0.0
 11
203.6640415719
 21
99.8730531901
 31
0.0
  0
LINE
  5
2C2
330
2BB
100
AcDbEntity
  8
RIQUADRO
100
AcDbLine
 10
202.6640415719
 20
119.8730531901
 30
0.0
 11
202.6640415719
 21
126.2230531901
 31
0.0
  0
LINE
  5
2C3
330
2BB
100
AcDbEntity
  8
RIQUADRO
100
AcDbLine
 10
202.6640415719
 20
119.8730531901
 30
0.0
 11
202.6640415719
 21
99.8730531901
 31
0.0
  0
LINE
  5
2C4
330
2BB
100
AcDbEntity
  8
RIQUADRO
100
AcDbLine
 10
202.6640415719
 20
99.8730531901
 30
0.0
 11
202.6640415719
 21
93.5230531901
 31
0.0
  0
MTEXT
  5
2C5
330
2BB
100
AcDbEntity
  8
RIQUADRO
100
AcDbMText
 10
198.1523044827
 20
103.2586008967
 30
0.0
 40
3.5
 41
0.0
 71
     1
 72
     1
  1
%%c
  7
SLDTEXTSTYLE1
 11
-7.044195017643634E-15
 21
1.0
 31
0.0
 73
     1
 44
1.0
  0
MTEXT
  5
2C6
330
2BB
100
AcDbEntity
  8
RIQUADRO
100
AcDbMText
 10
198.1523046573
 20
108.5363847768
 30
0.0
 40
3.5
 41
0.0
 71
     1
 72
     1
  1
20
  7
SLDTEXTSTYLE1
 11
-7.044195017643634E-15
 21
1.0
 31
0.0
 73
     1
 44
1.0
  0
ENDBLK
  5
2BD
330
2BB
100
AcDbEntity
  8
0
100
AcDbBlockEnd
  0
BLOCK
  5
2C9
330
2C8
100
AcDbEntity
  8
0
100
AcDbBlockBegin
  2
*D26
 70
     1
 10
0.0
 20
0.0
 30
0.0
  3
*D26
  1

  0
SOLID
  5
2CB
330
2C8
100
AcDbEntity
  8
RIQUADRO
100
AcDbTrace
 10
134.4449427261
 20
120.3730531901
 30
0.0
 11
133.9369427261
 21
117.0710531901
 31
0.0
 12
134.9529427261
 22
117.0710531901
 32
0.0
 13
134.9529427261
 23
117.0710531901
 33
0.0
  0
SOLID
  5
2CC
330
2C8
100
AcDbEntity
  8
RIQUADRO
100
AcDbTrace
 10
134.4449427261
 20
99.3730531901
 30
0.0
 11
134.9529427261
 21
102.6750531901
 31
0.0
 12
133.9369427261
 22
102.6750531901
 32
0.0
 13
133.9369427261
 23
102.6750531901
 33
0.0
  0
LINE
  5
2CD
330
2C8
100
AcDbEntity
  8
RIQUADRO
100
AcDbLine
 10
140.3664303864
 20
99.3730531901
 30
0.0
 11
133.4449427261
 21
99.3730531901
 31
0.0
  0
LINE
  5
2CE
330
2C8
100
AcDbEntity
  8
RIQUADRO
100
AcDbLine
 10
134.4449427261
 20
120.3730531901
 30
0.0
 11
134.4449427261
 21
99.3730531901
 31
0.0
  0
LINE
  5
2CF
330
2C8
100
AcDbEntity
  8
RIQUADRO
100
AcDbLine
 10
134.4449427261
 20
99.3730531901
 30
0.0
 11
134.4449427261
 21
78.9955303989
 31
0.0
  0
MTEXT
  5
2D0
330
2C8
100
AcDbEntity
  8
RIQUADRO
100
AcDbMText
 10
129.9332056369
 20
80.5830303989
 30
0.0
 40
3.5
 41
0.0
 71
     1
 72
     1
  1
%%c
  7
SLDTEXTSTYLE1
 11
-7.044195017643634E-15
 21
1.0
 31
0.0
 73
     1
 44
1.0
  0
MTEXT
  5
2D1
330
2C8
100
AcDbEntity
  8
RIQUADRO
100
AcDbMText
 10
129.9332058116
 20
85.860814279
 30
0.0
 40
3.5
 41
0.0
 71
     1
 72
     1
  1
21
  7
SLDTEXTSTYLE1
 11
-7.044195017643634E-15
 21
1.0
 31
0.0
 73
     1
 44
1.0
  0
ENDBLK
  5
2CA
330
2C8
100
AcDbEntity
  8
0
100
AcDbBlockEnd
  0
BLOCK
  5
2D3
330
2D2
100
AcDbEntity
  8
0
100
AcDbBlockBegin
  2
SW_NOTE_13
 70
     0
 10
0.0
 20
0.0
 30
0.0
  3
SW_NOTE_13
  1

  0
LINE
  5
2D5
330
2D2
100
AcDbEntity
  8
RIQUADRO
 62
     0
100
AcDbLine
 10
0.0
 20
0.0
 30
0.0
 11
23.7957073474
 21
0.0
 31
0.0
  0
LINE
  5
2D6
330
2D2
100
AcDbEntity
  8
RIQUADRO
 62
     0
100
AcDbLine
 10
23.7957073474
 20
0.0
 30
0.0
 11
0.0
 21
0.0
 31
0.0
  0
LINE
  5
2D7
330
2D2
100
AcDbEntity
  8
RIQUADRO
 62
     0
100
AcDbLine
 10
0.0
 20
0.0
 30
0.0
 11
23.7957073474
 21
0.0
 31
0.0
  0
LINE
  5
2D8
330
2D2
100
AcDbEntity
  8
RIQUADRO
 62
     0
100
AcDbLine
 10
23.7957073474
 20
0.0
 30
0.0
 11
0.0
 21
0.0
 31
0.0
  0
LINE
  5
2D9
330
2D2
100
AcDbEntity
  8
RIQUADRO
 62
     0
100
AcDbLine
 10
0.0
 20
0.0
 30
0.0
 11
23.7957073474
 21
0.0
 31
0.0
  0
LINE
  5
2DA
330
2D2
100
AcDbEntity
  8
RIQUADRO
 62
     0
100
AcDbLine
 10
23.7957073474
 20
0.0
 30
0.0
 11
0.0
 21
0.0
 31
0.0
  0
MTEXT
  5
2DB
330
2D2
100
AcDbEntity
  8
RIQUADRO
 62
     0
100
AcDbMText
 10
0.0025499833
 20
4.1339310209
 30
0.0
 40
3.5
 41
0.0
 71
     1
 72
     1
  1
lock screw
  7
SLDTEXTSTYLE1
 73
     1
 44
1.0
  0
ENDBLK
  5
2D4
330
2D2
100
AcDbEntity
  8
0
100
AcDbBlockEnd
  0
BLOCK
  5
2DF
330
2DE
100
AcDbEntity
  8
0
100
AcDbBlockBegin
  2
_DOT
 70
     0
 10
0.0
 20
0.0
 30
0.0
  3
_DOT
  1

  0
POLYLINE
  5
2E1
330
2DE
100
AcDbEntity
  8
0
  6
ByBlock
 62
     0
100
AcDb2dPolyline
 66
     1
 10
0.0
 20
0.0
 30
0.0
 70
     1
 40
0.5
 41
0.5
  0
VERTEX
  5
2E3
330
2E1
100
AcDbEntity
  8
0
  6
ByBlock
 62
     0
100
AcDbVertex
100
AcDb2dVertex
 10
-0.25
 20
0.0
 30
0.0
 42
1.0
  0
VERTEX
  5
2E4
330
2E1
100
AcDbEntity
  8
0
  6
ByBlock
 62
     0
100
AcDbVertex
100
AcDb2dVertex
 10
0.25
 20
0.0
 30
0.0
 42
1.0
  0
SEQEND
  5
2E5
330
2E1
100
AcDbEntity
  8
0
  6
ByBlock
 62
     0
  0
LINE
  5
2E2
330
2DE
100
AcDbEntity
  8
0
  6
ByBlock
 62
     0
370
    -2
100
AcDbLine
 10
-0.5
 20
0.0
 30
0.0
 11
-1.0
 21
0.0
 31
0.0
  0
ENDBLK
  5
2E0
330
2DE
100
AcDbEntity
  8
0
100
AcDbBlockEnd
  0
BLOCK
  5
2E8
330
2E7
100
AcDbEntity
  8
0
100
AcDbBlockBegin
  2
SW_NOTE_14
 70
     0
 10
0.0
 20
0.0
 30
0.0
  3
SW_NOTE_14
  1

  0
LINE
  5
2EA
330
2E7
100
AcDbEntity
  8
RIQUADRO
 62
     0
100
AcDbLine
 10
0.0
 20
0.0
 30
0.0
 11
31.0834062604
 21
0.0
 31
0.0
  0
LINE
  5
2EB
330
2E7
100
AcDbEntity
  8
RIQUADRO
 62
     0
100
AcDbLine
 10
31.0834062604
 20
0.0
 30
0.0
 11
0.0
 21
0.0
 31
0.0
  0
LINE
  5
2EC
330
2E7
100
AcDbEntity
  8
RIQUADRO
 62
     0
100
AcDbLine
 10
0.0
 20
0.0
 30
0.0
 11
31.0834062604
 21
0.0
 31
0.0
  0
LINE
  5
2ED
330
2E7
100
AcDbEntity
  8
RIQUADRO
 62
     0
100
AcDbLine
 10
31.0834062604
 20
0.0
 30
0.0
 11
0.0
 21
0.0
 31
0.0
  0
LINE
  5
2EE
330
2E7
100
AcDbEntity
  8
RIQUADRO
 62
     0
100
AcDbLine
 10
0.0
 20
0.0
 30
0.0
 11
31.0834062604
 21
0.0
 31
0.0
  0
LINE
  5
2EF
330
2E7
100
AcDbEntity
  8
RIQUADRO
 62
     0
100
AcDbLine
 10
31.0834062604
 20
0.0
 30
0.0
 11
0.0
 21
0.0
 31
0.0
  0
MTEXT
  5
2F0
330
2E7
100
AcDbEntity
  8
RIQUADRO
 62
     0
100
AcDbMText
 10
0.0069631351
 20
4.1355251351
 30
0.0
 40
3.5
 41
0.0
 71
     1
 72
     1
  1
focusing bush
  7
SLDTEXTSTYLE1
 73
     1
 44
1.0
  0
ENDBLK
  5
2E9
330
2E7
100
AcDbEntity
  8
0
100
AcDbBlockEnd
  0
ENDSEC
  0
SECTION
  2
ENTITIES
  0
IMAGE
  5
49
330
1F
100
AcDbEntity
  8
0
 92
      140
310
8C00000001000000840000000600000005000000AE5946579F7D3940913DE5FE8D24394000000000000000003288E166C5755040913DE5FE8D24394000000000000000003288E166C5755040676938DB40D446400000000000000000AE5946579F7D3940676938DB40D446400000000000000000AE5946579F7D3940913DE5
310
FE8D2439400000000000000000
100
AcDbRasterImage
 90
        0
 10
25.4907125994
 20
25.1427916822
 30
0.0
 11
0.02433622488243343
 21
0.0
 31
0.0
 12
0.0
 22
0.02433622488243342
 32
0.0
 13
1658.0
 23
843.0
340
48
 70
     7
280
     0
281
    50
282
    50
283
     0
360
4A
 71
     1
 91
        2
 14
-0.5
 24
-0.5
 14
1657.5
 24
842.5
  0
LINE
  5
4B
330
1F
100
AcDbEntity
  8
RIQUADRO
100
AcDbLine
 10
404.6064695934
 20
148.4188989298
 30
0.0
 11
409.6064695934
 21
148.4188989298
 31
0.0
  0
LINE
  5
4C
330
1F
100
AcDbEntity
  8
RIQUADRO
100
AcDbLine
 10
276.0832795111
 20
40.9188989298
 30
0.0
 11
276.0832795111
 21
19.9188989298
 31
0.0
  0
LINE
  5
4D
330
1F
100
AcDbEntity
  8
RIQUADRO
100
AcDbLine
 10
309.6528136963
 20
36.4188989298
 30
0.0
 11
309.6528136963
 21
19.9188989298
 31
0.0
  0
LINE
  5
4E
330
1F
100
AcDbEntity
  8
RIQUADRO
  6
Continuous
 62
     7
370
    30
100
AcDbLine
 10
414.6064695934
 20
4.9188989298
 30
0.0
 11
404.6064695934
 21
4.9188989298
 31
0.0
  0
LINE
  5
4F
330
1F
100
AcDbEntity
  8
RIQUADRO
  6
Continuous
 62
     7
370
    30
100
AcDbLine
 10
414.6064695934
 20
4.9188989298
 30
0.0
 11
414.6064695934
 21
14.9188989298
 31
0.0
  0
LINE
  5
50
330
1F
100
AcDbEntity
  8
CONTORNO
  6
Continuous
 62
     7
370
    30
100
AcDbLine
 10
414.6064695934
 20
291.9188989298
 30
0.0
 11
414.6064695934
 21
281.9188989298
 31
0.0
  0
LINE
  5
51
330
1F
100
AcDbEntity
  8
CONTORNO
  6
Continuous
 62
     7
370
    30
100
AcDbLine
 10
414.6064695934
 20
291.9188989298
 30
0.0
 11
404.6064695934
 21
291.9188989298
 31
0.0
  0
LINE
  5
52
330
1F
100
AcDbEntity
  8
RIQUADRO
100
AcDbLine
 10
9.6064695934
 20
286.9188989298
 30
0.0
 11
9.6064695934
 21
9.9188989298
 31
0.0
  0
LINE
  5
53
330
1F
100
AcDbEntity
  8
RIQUADRO
100
AcDbLine
 10
9.6064695934
 20
9.9188989298
 30
0.0
 11
409.6064695934
 21
9.9188989298
 31
0.0
  0
LINE
  5
54
330
1F
100
AcDbEntity
  8
RIQUADRO
100
AcDbLine
 10
409.6064695934
 20
286.9188989298
 30
0.0
 11
409.6064695934
 21
9.9188989298
 31
0.0
  0
LINE
  5
55
330
1F
100
AcDbEntity
  8
RIQUADRO
100
AcDbLine
 10
9.6064695934
 20
286.9188989298
 30
0.0
 11
409.6064695934
 21
286.9188989298
 31
0.0
  0
LINE
  5
56
330
1F
100
AcDbEntity
  8
RIQUADRO
100
AcDbLine
 10
14.6064695934
 20
286.9188989298
 30
0.0
 11
14.6064695934
 21
9.9188989298
 31
0.0
  0
LINE
  5
57
330
1F
100
AcDbEntity
  8
CARTIGLIO
100
AcDbLine
 10
224.6064695934
 20
14.9188989298
 30
0.0
 11
409.6064695934
 21
14.9188989298
 31
0.0
  0
LINE
  5
58
330
1F
100
AcDbEntity
  8
RIQUADRO
100
AcDbLine
 10
404.6064695934
 20
286.9188989298
 30
0.0
 11
404.6064695934
 21
9.9188989298
 31
0.0
  0
LINE
  5
59
330
1F
100
AcDbEntity
  8
RIQUADRO
100
AcDbLine
 10
9.6064695934
 20
281.9188989298
 30
0.0
 11
409.6064695934
 21
281.9188989298
 31
0.0
  0
LINE
  5
5A
330
1F
100
AcDbEntity
  8
CARTIGLIO
100
AcDbLine
 10
404.6064695934
 20
74.9188989298
 30
0.0
 11
224.6064695934
 21
74.9188989298
 31
0.0
  0
LINE
  5
5B
330
1F
100
AcDbEntity
  8
CARTIGLIO
100
AcDbLine
 10
224.6064695934
 20
74.9188989298
 30
0.0
 11
224.6064695934
 21
14.9188989298
 31
0.0
  0
LINE
  5
5C
330
1F
100
AcDbEntity
  8
CARTIGLIO
100
AcDbLine
 10
404.6064695934
 20
57.9188989298
 30
0.0
 11
224.6064695934
 21
57.9188989298
 31
0.0
  0
LINE
  5
5D
330
1F
100
AcDbEntity
  8
CARTIGLIO
100
AcDbLine
 10
404.6064695934
 20
19.9188989298
 30
0.0
 11
224.6064695934
 21
19.9188989298
 31
0.0
  0
LINE
  5
5E
330
1F
100
AcDbEntity
  8
CARTIGLIO
100
AcDbLine
 10
404.6064695934
 20
25.4188989298
 30
0.0
 11
334.5806856161
 21
25.4188989298
 31
0.0
  0
LINE
  5
5F
330
1F
100
AcDbEntity
  8
CARTIGLIO
100
AcDbLine
 10
334.5806856161
 20
74.9188989298
 30
0.0
 11
334.5806856161
 21
19.9188989298
 31
0.0
  0
LINE
  5
60
330
1F
100
AcDbEntity
  8
CARTIGLIO
100
AcDbLine
 10
404.6064695934
 20
40.9188989298
 30
0.0
 11
224.6064695934
 21
40.9188989298
 31
0.0
  0
LINE
  5
61
330
1F
100
AcDbEntity
  8
CARTIGLIO
100
AcDbLine
 10
394.9061356618
 20
40.9188989298
 30
0.0
 11
394.9061356618
 21
25.4188989298
 31
0.0
  0
LINE
  5
62
330
1F
100
AcDbEntity
  8
RIQUADRO
100
AcDbLine
 10
310.8161143859
 20
74.9188989298
 30
0.0
 11
310.8161143859
 21
57.9188989298
 31
0.0
  0
LINE
  5
63
330
1F
100
AcDbEntity
  8
CARTIGLIO
100
AcDbLine
 10
404.6064695934
 20
74.9188989298
 30
0.0
 11
404.6064695934
 21
14.9188989298
 31
0.0
  0
LINE
  5
64
330
1F
100
AcDbEntity
  8
PROIEZ
  6
CENTERX2
100
AcDbLine
 10
322.7161718563
 20
66.2117682846
 30
0.0
 11
334.1004337573
 21
66.2117682846
 31
0.0
  0
LINE
  5
65
330
1F
100
AcDbEntity
  8
PROIEZ
  6
CENTERX2
100
AcDbLine
 10
328.4083028068
 20
71.903899235
 30
0.0
 11
328.4083028068
 21
60.5196373341
 31
0.0
  0
LINE
  5
66
330
1F
100
AcDbEntity
  8
CONTORNO
  6
Continuous
 62
     7
370
    30
100
AcDbLine
 10
4.6064695934
 20
4.9188989298
 30
0.0
 11
4.6064695934
 21
14.9188989298
 31
0.0
  0
LINE
  5
67
330
1F
100
AcDbEntity
  8
CONTORNO
  6
Continuous
 62
     7
370
    30
100
AcDbLine
 10
4.6064695934
 20
4.9188989298
 30
0.0
 11
14.6064695934
 21
4.9188989298
 31
0.0
  0
LINE
  5
68
330
1F
100
AcDbEntity
  8
PROIEZ
  6
Continuous
 62
    16
370
    15
100
AcDbLine
 10
319.371306068
 20
62.015040788
 30
0.0
 11
319.371306068
 21
70.4084957811
 31
0.0
  0
LINE
  5
69
330
1F
100
AcDbEntity
  8
PROIEZ
  6
CENTERX2
100
AcDbLine
 10
320.6991461309
 20
66.2117682846
 30
0.0
 11
312.371306068
 21
66.2117682846
 31
0.0
  0
LINE
  5
6A
330
1F
100
AcDbEntity
  8
PROIEZ
  6
Continuous
 62
    16
370
    15
100
AcDbLine
 10
312.371306068
 20
64.015040788
 30
0.0
 11
312.371306068
 21
68.4084957811
 31
0.0
  0
LINE
  5
6B
330
1F
100
AcDbEntity
  8
PROIEZ
100
AcDbLine
 10
312.371306068
 20
64.015040788
 30
0.0
 11
319.371306068
 21
62.015040788
 31
0.0
  0
LINE
  5
6C
330
1F
100
AcDbEntity
  8
PROIEZ
  6
Continuous
 62
    16
370
    15
100
AcDbLine
 10
312.371306068
 20
68.4084957811
 30
0.0
 11
319.371306068
 21
70.4084957811
 31
0.0
  0
LINE
  5
6D
330
1F
100
AcDbEntity
  8
CARTIGLIO
100
AcDbLine
 10
334.5806856161
 20
67.3699079683
 30
0.0
 11
404.6064695934
 21
67.3699079683
 31
0.0
  0
LINE
  5
6E
330
1F
100
AcDbEntity
  8
CARTIGLIO
100
AcDbLine
 10
310.8161143859
 20
66.4188989298
 30
0.0
 11
224.6064695934
 21
66.4188989298
 31
0.0
  0
LINE
  5
6F
330
1F
100
AcDbEntity
  8
CARTIGLIO
100
AcDbLine
 10
300.6064695934
 20
57.9188989298
 30
0.0
 11
300.6064695934
 21
40.9188989298
 31
0.0
  0
LINE
  5
70
330
1F
100
AcDbEntity
  8
CARTIGLIO
100
AcDbLine
 10
300.6064695934
 20
49.4188989298
 30
0.0
 11
334.5806856161
 21
49.4188989298
 31
0.0
  0
LINE
  5
71
330
1F
100
AcDbEntity
  8
CARTIGLIO
100
AcDbLine
 10
321.713171766
 20
57.9188989298
 30
0.0
 11
321.713171766
 21
40.9188989298
 31
0.0
  0
LINE
  5
72
330
1F
100
AcDbEntity
  8
CARTIGLIO
100
AcDbLine
 10
300.6064695934
 20
50.9188989298
 30
0.0
 11
224.6064695934
 21
50.9188989298
 31
0.0
  0
LINE
  5
73
330
1F
100
AcDbEntity
  8
CARTIGLIO
100
AcDbLine
 10
300.6064695934
 20
44.9188989298
 30
0.0
 11
224.6064695934
 21
44.9188989298
 31
0.0
  0
LINE
  5
74
330
1F
100
AcDbEntity
  8
CARTIGLIO
100
AcDbLine
 10
234.1064695934
 20
50.9188989298
 30
0.0
 11
234.1064695934
 21
40.9188989298
 31
0.0
  0
LINE
  5
75
330
1F
100
AcDbEntity
  8
CARTIGLIO
100
AcDbLine
 10
243.6064695934
 20
50.9188989298
 30
0.0
 11
243.6064695934
 21
40.9188989298
 31
0.0
  0
LINE
  5
76
330
1F
100
AcDbEntity
  8
CARTIGLIO
100
AcDbLine
 10
253.1064695934
 20
50.9188989298
 30
0.0
 11
253.1064695934
 21
40.9188989298
 31
0.0
  0
LINE
  5
77
330
1F
100
AcDbEntity
  8
CARTIGLIO
100
AcDbLine
 10
262.6064695934
 20
50.9188989298
 30
0.0
 11
262.6064695934
 21
40.9188989298
 31
0.0
  0
LINE
  5
78
330
1F
100
AcDbEntity
  8
CARTIGLIO
100
AcDbLine
 10
272.1064695934
 20
50.9188989298
 30
0.0
 11
272.1064695934
 21
40.9188989298
 31
0.0
  0
LINE
  5
79
330
1F
100
AcDbEntity
  8
CARTIGLIO
100
AcDbLine
 10
281.6064695934
 20
50.9188989298
 30
0.0
 11
281.6064695934
 21
40.9188989298
 31
0.0
  0
LINE
  5
7A
330
1F
100
AcDbEntity
  8
CARTIGLIO
100
AcDbLine
 10
291.1064695934
 20
50.9188989298
 30
0.0
 11
291.1064695934
 21
19.9188989298
 31
0.0
  0
LINE
  5
7B
330
1F
100
AcDbEntity
  8
CARTIGLIO
100
AcDbLine
 10
224.6064695934
 20
54.4188989298
 30
0.0
 11
300.6064695934
 21
54.4188989298
 31
0.0
  0
LINE
  5
7C
330
1F
100
AcDbEntity
  8
CARTIGLIO
100
AcDbLine
 10
284.593039773
 20
57.9188989298
 30
0.0
 11
284.593039773
 21
50.9188989298
 31
0.0
  0
LINE
  5
7D
330
1F
100
AcDbEntity
  8
CARTIGLIO
100
AcDbLine
 10
293.3811854468
 20
57.9188989298
 30
0.0
 11
293.3811854468
 21
50.9188989298
 31
0.0
  0
LINE
  5
7E
330
1F
100
AcDbEntity
  8
CARTIGLIO
100
AcDbLine
 10
334.5806856161
 20
25.4188989298
 30
0.0
 11
276.0832795111
 21
25.4188989298
 31
0.0
  0
LINE
  5
7F
330
1F
100
AcDbEntity
  8
CARTIGLIO
100
AcDbLine
 10
334.5806856161
 20
30.9188989298
 30
0.0
 11
276.0832795111
 21
30.9188989298
 31
0.0
  0
LINE
  5
80
330
1F
100
AcDbEntity
  8
CARTIGLIO
100
AcDbLine
 10
334.5806856161
 20
36.4188989298
 30
0.0
 11
276.0832795111
 21
36.4188989298
 31
0.0
  0
LINE
  5
81
330
1F
100
AcDbEntity
  8
CARTIGLIO
100
AcDbLine
 10
376.0416230366
 20
67.3699079683
 30
0.0
 11
376.0416230366
 21
74.9188989298
 31
0.0
  0
LINE
  5
82
330
1F
100
AcDbEntity
  8
RIQUADRO
100
AcDbLine
 10
209.6064695934
 20
14.9188989298
 30
0.0
 11
209.6064695934
 21
19.9188989298
 31
0.0
  0
LINE
  5
83
330
1F
100
AcDbEntity
  8
RIQUADRO
100
AcDbLine
 10
63.3564695934
 20
286.9188989298
 30
0.0
 11
63.3564695934
 21
281.9188989298
 31
0.0
  0
LINE
  5
84
330
1F
100
AcDbEntity
  8
RIQUADRO
100
AcDbLine
 10
112.1064695934
 20
286.9188989298
 30
0.0
 11
112.1064695934
 21
281.9188989298
 31
0.0
  0
LINE
  5
85
330
1F
100
AcDbEntity
  8
RIQUADRO
100
AcDbLine
 10
160.8564695934
 20
286.9188989298
 30
0.0
 11
160.8564695934
 21
281.9188989298
 31
0.0
  0
LINE
  5
86
330
1F
100
AcDbEntity
  8
CONTORNO
  6
Continuous
 62
     7
370
    30
100
AcDbLine
 10
4.6064695934
 20
291.9188989298
 30
0.0
 11
14.6064695934
 21
291.9188989298
 31
0.0
  0
LINE
  5
87
330
1F
100
AcDbEntity
  8
RIQUADRO
100
AcDbLine
 10
14.6064695934
 20
81.6688989298
 30
0.0
 11
9.6064695934
 21
81.6688989298
 31
0.0
  0
LINE
  5
88
330
1F
100
AcDbEntity
  8
TABELLA_REV
100
AcDbLine
 10
404.6064695934
 20
260.9188989298
 30
0.0
 11
224.6064695934
 21
260.9188989298
 31
0.0
  0
LINE
  5
89
330
1F
100
AcDbEntity
  8
CONTORNO
  6
Continuous
 62
     7
370
    30
100
AcDbLine
 10
4.6064695934
 20
291.9188989298
 30
0.0
 11
4.6064695934
 21
281.9188989298
 31
0.0
  0
LINE
  5
8A
330
1F
100
AcDbEntity
  8
CONTORNO
100
AcDbLine
 10
14.6064695934
 20
281.9188989298
 30
0.0
 11
404.6064695934
 21
281.9188989298
 31
0.0
  0
LINE
  5
8B
330
1F
100
AcDbEntity
  8
RIQUADRO
100
AcDbLine
 10
14.6064695934
 20
215.1688989298
 30
0.0
 11
9.6064695934
 21
215.1688989298
 31
0.0
  0
LINE
  5
8C
330
1F
100
AcDbEntity
  8
RIQUADRO
100
AcDbLine
 10
404.6064695934
 20
81.6688989298
 30
0.0
 11
409.6064695934
 21
81.6688989298
 31
0.0
  0
LINE
  5
8D
330
1F
100
AcDbEntity
  8
RIQUADRO
100
AcDbLine
 10
9.6064695934
 20
148.4188989298
 30
0.0
 11
14.6064695934
 21
148.4188989298
 31
0.0
  0
LINE
  5
8E
330
1F
100
AcDbEntity
  8
RIQUADRO
100
AcDbLine
 10
404.6064695934
 20
215.1688989298
 30
0.0
 11
409.6064695934
 21
215.1688989298
 31
0.0
  0
LINE
  5
8F
330
1F
100
AcDbEntity
  8
CONTORNO
100
AcDbLine
 10
404.6064695934
 20
281.9188989298
 30
0.0
 11
404.6064695934
 21
14.9188989298
 31
0.0
  0
LINE
  5
90
330
1F
100
AcDbEntity
  8
CONTORNO
100
AcDbLine
 10
404.6064695934
 20
14.9188989298
 30
0.0
 11
14.6064695934
 21
14.9188989298
 31
0.0
  0
LINE
  5
91
330
1F
100
AcDbEntity
  8
CONTORNO
100
AcDbLine
 10
14.6064695934
 20
14.9188989298
 30
0.0
 11
14.6064695934
 21
281.9188989298
 31
0.0
  0
LINE
  5
92
330
1F
100
AcDbEntity
  8
RIQUADRO
100
AcDbLine
 10
209.6064695934
 20
286.9188989298
 30
0.0
 11
209.6064695934
 21
276.9188989298
 31
0.0
  0
LINE
  5
93
330
1F
100
AcDbEntity
  8
RIQUADRO
100
AcDbLine
 10
258.3564695934
 20
286.9188989298
 30
0.0
 11
258.3564695934
 21
281.9188989298
 31
0.0
  0
LINE
  5
94
330
1F
100
AcDbEntity
  8
RIQUADRO
100
AcDbLine
 10
307.1064695934
 20
286.9188989298
 30
0.0
 11
307.1064695934
 21
281.9188989298
 31
0.0
  0
LINE
  5
95
330
1F
100
AcDbEntity
  8
RIQUADRO
100
AcDbLine
 10
355.8564695934
 20
286.9188989298
 30
0.0
 11
355.8564695934
 21
281.9188989298
 31
0.0
  0
LINE
  5
96
330
1F
100
AcDbEntity
  8
RIQUADRO
100
AcDbLine
 10
63.3564695934
 20
14.9188989298
 30
0.0
 11
63.3564695934
 21
9.9188989298
 31
0.0
  0
LINE
  5
97
330
1F
100
AcDbEntity
  8
RIQUADRO
100
AcDbLine
 10
112.1064695934
 20
14.9188989298
 30
0.0
 11
112.1064695934
 21
9.9188989298
 31
0.0
  0
LINE
  5
98
330
1F
100
AcDbEntity
  8
CONTORNO
100
AcDbLine
 10
219.6064695934
 20
14.9188989298
 30
0.0
 11
219.6064695934
 21
9.9188989298
 31
0.0
  0
LINE
  5
99
330
1F
100
AcDbEntity
  8
CONTORNO
100
AcDbLine
 10
209.6064695934
 20
14.9188989298
 30
0.0
 11
209.6064695934
 21
9.9188989298
 31
0.0
  0
LINE
  5
9A
330
1F
100
AcDbEntity
  8
CONTORNO
100
AcDbLine
 10
229.6064695934
 20
14.9188989298
 30
0.0
 11
229.6064695934
 21
9.9188989298
 31
0.0
  0
LINE
  5
9B
330
1F
100
AcDbEntity
  8
CONTORNO
100
AcDbLine
 10
239.6064695934
 20
14.9188989298
 30
0.0
 11
239.6064695934
 21
9.9188989298
 31
0.0
  0
LINE
  5
9C
330
1F
100
AcDbEntity
  8
CONTORNO
100
AcDbLine
 10
249.6064695934
 20
14.9188989298
 30
0.0
 11
249.6064695934
 21
9.9188989298
 31
0.0
  0
LINE
  5
9D
330
1F
100
AcDbEntity
  8
RIQUADRO
100
AcDbLine
 10
259.6064695934
 20
14.9188989298
 30
0.0
 11
259.6064695934
 21
9.9188989298
 31
0.0
  0
LINE
  5
9E
330
1F
100
AcDbEntity
  8
CONTORNO
100
AcDbLine
 10
199.6064695934
 20
14.9188989298
 30
0.0
 11
199.6064695934
 21
9.9188989298
 31
0.0
  0
LINE
  5
9F
330
1F
100
AcDbEntity
  8
CONTORNO
100
AcDbLine
 10
189.6064695934
 20
14.9188989298
 30
0.0
 11
189.6064695934
 21
9.9188989298
 31
0.0
  0
LINE
  5
A0
330
1F
100
AcDbEntity
  8
TABELLA_REV
100
AcDbLine
 10
224.6064695934
 20
260.9188989298
 30
0.0
 11
224.6064695934
 21
281.9188989298
 31
0.0
  0
LINE
  5
A1
330
1F
100
AcDbEntity
  8
TABELLA_REV
100
AcDbLine
 10
404.6064695934
 20
266.4188989298
 30
0.0
 11
224.6064695934
 21
266.4188989298
 31
0.0
  0
LINE
  5
A2
330
1F
100
AcDbEntity
  8
TABELLA_REV
100
AcDbLine
 10
404.6064695934
 20
271.9188989298
 30
0.0
 11
224.6064695934
 21
271.9188989298
 31
0.0
  0
LINE
  5
A3
330
1F
100
AcDbEntity
  8
TABELLA_REV
100
AcDbLine
 10
404.6064695934
 20
277.4188989298
 30
0.0
 11
224.6064695934
 21
277.4188989298
 31
0.0
  0
LINE
  5
A4
330
1F
100
AcDbEntity
  8
TABELLA_REV
100
AcDbLine
 10
240.6064695934
 20
281.9188989298
 30
0.0
 11
240.6064695934
 21
260.9188989298
 31
0.0
  0
LINE
  5
A5
330
1F
100
AcDbEntity
  8
TABELLA_REV
100
AcDbLine
 10
351.6064695934
 20
281.9188989298
 30
0.0
 11
351.6064695934
 21
260.9188989298
 31
0.0
  0
LINE
  5
A6
330
1F
100
AcDbEntity
  8
TABELLA_REV
100
AcDbLine
 10
374.6064695934
 20
281.9188989298
 30
0.0
 11
374.6064695934
 21
260.9188989298
 31
0.0
  0
LINE
  5
A7
330
1F
100
AcDbEntity
  8
RIQUADRO
100
AcDbLine
 10
307.1064695934
 20
14.9188989298
 30
0.0
 11
307.1064695934
 21
9.9188989298
 31
0.0
  0
LINE
  5
A8
330
1F
100
AcDbEntity
  8
RIQUADRO
100
AcDbLine
 10
355.8564695934
 20
14.9188989298
 30
0.0
 11
355.8564695934
 21
9.9188989298
 31
0.0
  0
LINE
  5
A9
330
1F
100
AcDbEntity
  8
CONTORNO
100
AcDbLine
 10
179.6064695934
 20
14.9188989298
 30
0.0
 11
179.6064695934
 21
9.9188989298
 31
0.0
  0
LINE
  5
AA
330
1F
100
AcDbEntity
  8
CONTORNO
100
AcDbLine
 10
169.6064695934
 20
14.9188989298
 30
0.0
 11
169.6064695934
 21
9.9188989298
 31
0.0
  0
LINE
  5
AB
330
1F
100
AcDbEntity
  8
RIQUADRO
100
AcDbLine
 10
159.6064695934
 20
14.9188989298
 30
0.0
 11
159.6064695934
 21
9.9188989298
 31
0.0
  0
LINE
  5
AC
330
1F
100
AcDbEntity
  8
RIQUADRO
100
AcDbLine
 10
9.6064695934
 20
14.9188989298
 30
0.0
 11
404.6064695934
 21
14.9188989298
 31
0.0
  0
LINE
  5
AD
330
1F
100
AcDbEntity
  8
RIQUADRO
100
AcDbLine
 10
209.6064695934
 20
19.9188989298
 30
0.0
 11
209.6064695934
 21
9.9188989298
 31
0.0
  0
LINE
  5
AE
330
1F
100
AcDbEntity
  8
CONTORNO
100
AcDbLine
 10
159.6064695934
 20
14.9188989298
 30
0.0
 11
259.6064695934
 21
14.9188989298
 31
0.0
  0
LINE
  5
AF
330
1F
100
AcDbEntity
  8
CONTORNO
100
AcDbLine
 10
159.6064695934
 20
14.9188989298
 30
0.0
 11
159.6064695934
 21
9.9188989298
 31
0.0
  0
LINE
  5
B0
330
1F
100
AcDbEntity
  8
CONTORNO
100
AcDbLine
 10
159.6064695934
 20
9.9188989298
 30
0.0
 11
259.6064695934
 21
9.9188989298
 31
0.0
  0
LINE
  5
B1
330
1F
100
AcDbEntity
  8
CONTORNO
100
AcDbLine
 10
259.6064695934
 20
14.9188989298
 30
0.0
 11
259.6064695934
 21
9.9188989298
 31
0.0
  0
CIRCLE
  5
B2
330
1F
100
AcDbEntity
  8
PROIEZ
100
AcDbCircle
 10
328.4083028068
 20
66.2117682846
 30
0.0
 40
3.99999999999999
  0
CIRCLE
  5
B3
330
1F
100
AcDbEntity
  8
PROIEZ
100
AcDbCircle
 10
328.4083028068
 20
66.2117682846
 30
0.0
 40
1.999999999999995
  0
MTEXT
  5
D7
330
1F
100
AcDbEntity
  8
CARTIGLIO
100
AcDbMText
 10
337.7708710258
 20
74.9164013876
 30
0.0
 40
2.0
 41
0.0
 71
     1
 72
     1
  1
Mass
  7
SLDTEXTSTYLE0
 73
     1
 44
1.0
  0
MTEXT
  5
D8
330
1F
100
AcDbEntity
  8
CARTIGLIO
100
AcDbMText
 10
336.4385247162
 20
40.0490448912
 30
0.0
 40
2.0
 41
0.0
 71
     1
 72
     1
  1
Drawing No.
  7
SLDTEXTSTYLE0
 73
     1
 44
1.0
  0
MTEXT
  5
D9
330
1F
100
AcDbEntity
  8
CARTIGLIO
100
AcDbMText
 10
379.8345876754
 20
73.9203214643
 30
0.0
 40
2.0
 41
0.0
 71
     1
 72
     1
  1
Scale
  7
SLDTEXTSTYLE0
 73
     1
 44
1.0
  0
MTEXT
  5
DA
330
1F
100
AcDbEntity
  8
CARTIGLIO
100
AcDbMText
 10
396.5375384734
 20
39.7279346575
 30
0.0
 40
2.0
 41
0.0
 71
     1
 72
     1
  1
Sheet
  7
SLDTEXTSTYLE0
 73
     1
 44
1.0
  0
MTEXT
  5
DC
330
1F
100
AcDbEntity
  8
CARTIGLIO
100
AcDbMText
 10
388.5670154872
 20
72.762190189
 30
0.0
 40
3.5
 41
0.0
 71
     1
 72
     1
  1
1:1
  7
SLDTEXTSTYLE1
 73
     1
 44
1.0
  0
INSERT
  5
E2
330
1F
100
AcDbEntity
  8
CARTIGLIO
100
AcDbBlockReference
  2
SW_NOTE_0
 10
349.1128137658
 20
28.1070669802
 30
0.0
  0
MTEXT
  5
E4
330
1F
100
AcDbEntity
  8
CARTIGLIO
100
AcDbMText
 10
345.7835971745
 20
72.9866011159
 30
0.0
 40
3.5
 41
0.0
 71
     1
 72
     1
  1
112 g
  7
SLDTEXTSTYLE2
 73
     1
 44
1.0
  0
MTEXT
  5
E5
330
1F
100
AcDbEntity
  8
CARTIGLIO
100
AcDbMText
 10
396.616899209
 20
32.2803752313
 30
0.0
 40
3.5
 41
0.0
 71
     1
 72
     1
  1
1/1
  7
SLDTEXTSTYLE1
 73
     1
 44
1.0
  0
MTEXT
  5
E6
330
1F
100
AcDbEntity
  8
CARTIGLIO
100
AcDbMText
 10
336.299093022
 20
23.4534904841
 30
0.0
 40
1.9
 41
0.0
 71
     1
 72
     1
  1
Reproduction forbidden without specific authorization
  7
SLDTEXTSTYLE1
 73
     1
 44
1.0
  0
MTEXT
  5
E7
330
1F
100
AcDbEntity
  8
CARTIGLIO
100
AcDbMText
 10
335.679554755
 20
55.9263534953
 30
0.0
 40
2.0
 41
0.0
 71
     1
 72
     1
  1
Description
  7
SLDTEXTSTYLE1
 73
     1
 44
1.0
  0
INSERT
  5
ED
330
1F
100
AcDbEntity
  8
CARTIGLIO
100
AcDbBlockReference
  2
SW_NOTE_1
 10
343.1309977198
 20
45.8215954511
 30
0.0
  0
MTEXT
  5
EE
330
1F
100
AcDbEntity
  8
CARTIGLIO
100
AcDbMText
 10
335.1168362645
 20
66.5380601583
 30
0.0
 40
2.0
 41
0.0
 71
     1
 72
     1
  1
Project-Prod.item/Instrument
  7
SLDTEXTSTYLE1
 73
     1
 44
1.0
  0
MTEXT
  5
EF
330
1F
100
AcDbEntity
  8
CARTIGLIO
100
AcDbMText
 10
345.5520292613
 20
63.7028329938
 30
0.0
 40
3.5
 41
0.0
 71
     1
 72
     1
  1
PCPB013
  7
SLDTEXTSTYLE1
 73
     1
 44
1.0
  0
MTEXT
  5
F0
330
1F
100
AcDbEntity
  8
CARTIGLIO
100
AcDbMText
 10
225.1980409902
 20
74.1161943469
 30
0.0
 40
2.0
 41
0.0
 71
     1
 72
     1
  1
Material
  7
SLDTEXTSTYLE1
 73
     1
 44
1.0
  0
MTEXT
  5
F1
330
1F
100
AcDbEntity
  8
CARTIGLIO
100
AcDbMText
 10
225.7130539659
 20
65.4438300137
 30
0.0
 40
2.0
 41
0.0
 71
     1
 72
     1
  1
Surface treatment
  7
SLDTEXTSTYLE1
 73
     1
 44
1.0
  0
INSERT
  5
F7
330
1F
100
AcDbEntity
  8
CARTIGLIO
100
AcDbBlockReference
  2
SW_NOTE_2
 10
301.2591756807
 20
45.2636546279
 30
0.0
  0
INSERT
  5
FD
330
1F
100
AcDbEntity
  8
CARTIGLIO
100
AcDbBlockReference
  2
SW_NOTE_3
 10
301.1540673096
 20
52.9795257293
 30
0.0
  0
MTEXT
  5
FE
330
1F
100
AcDbEntity
  8
CARTIGLIO
100
AcDbMText
 10
323.1020303886
 20
47.0427568542
 30
0.0
 40
3.0
 41
0.0
 71
     1
 72
     1
  1
R 0.5
  7
SLDTEXTSTYLE2
 73
     1
 44
1.0
  0
MTEXT
  5
FF
330
1F
100
AcDbEntity
  8
CARTIGLIO
100
AcDbMText
 10
322.6236956434
 20
54.6717597721
 30
0.0
 40
3.0
 41
0.0
 71
     1
 72
     1
  1
0.5x45°
  7
SLDTEXTSTYLE1
 73
     1
 44
1.0
  0
MTEXT
  5
100
330
1F
100
AcDbEntity
  8
CARTIGLIO
100
AcDbMText
 10
226.1663992327
 20
56.6314503022
 30
0.0
 40
1.5
 41
0.0
 71
     1
 72
     1
  1
Geometrical tolerance (ISO 2768-2)
  7
SLDTEXTSTYLE1
 73
     1
 44
1.0
  0
MTEXT
  5
101
330
1F
100
AcDbEntity
  8
CARTIGLIO
100
AcDbMText
 10
226.3420404028
 20
53.5467114567
 30
0.0
 40
1.5
 41
0.0
 71
     1
 72
     1
  1
Linear tolerance (ISO 2768-2)
  7
SLDTEXTSTYLE1
 73
     1
 44
1.0
  0
INSERT
  5
107
330
1F
100
AcDbEntity
  8
CARTIGLIO
100
AcDbBlockReference
  2
SW_NOTE_4
 10
227.1848978511
 20
47.995379114
 30
0.0
  0
INSERT
  5
10D
330
1F
100
AcDbEntity
  8
CARTIGLIO
100
AcDbBlockReference
  2
SW_NOTE_5
 10
236.1831590389
 20
47.6562392295
 30
0.0
  0
INSERT
  5
113
330
1F
100
AcDbEntity
  8
CARTIGLIO
100
AcDbBlockReference
  2
SW_NOTE_6
 10
246.0011017172
 20
48.0643965047
 30
0.0
  0
INSERT
  5
119
330
1F
100
AcDbEntity
  8
CARTIGLIO
100
AcDbBlockReference
  2
SW_NOTE_7
 10
254.833053286
 20
47.845974201
 30
0.0
  0
INSERT
  5
11F
330
1F
100
AcDbEntity
  8
CARTIGLIO
100
AcDbBlockReference
  2
SW_NOTE_8
 10
264.2088281744
 20
47.7402421332
 30
0.0
  0
INSERT
  5
125
330
1F
100
AcDbEntity
  8
CARTIGLIO
100
AcDbBlockReference
  2
SW_NOTE_9
 10
272.9437277552
 20
47.690605615
 30
0.0
  0
INSERT
  5
12B
330
1F
100
AcDbEntity
  8
CARTIGLIO
100
AcDbBlockReference
  2
SW_NOTE_10
 10
282.8422252116
 20
47.8759280188
 30
0.0
  0
INSERT
  5
131
330
1F
100
AcDbEntity
  8
CARTIGLIO
100
AcDbBlockReference
  2
SW_NOTE_11
 10
292.04151821
 20
47.8041162355
 30
0.0
  0
MTEXT
  5
132
330
1F
100
AcDbEntity
  8
CARTIGLIO
100
AcDbMText
 10
226.2283371902
 20
43.8543070042
 30
0.0
 40
2.0
 41
0.0
 71
     1
 72
     1
  1
±0.1
  7
SLDTEXTSTYLE1
 73
     1
 44
1.0
  0
MTEXT
  5
133
330
1F
100
AcDbEntity
  8
CARTIGLIO
100
AcDbMText
 10
236.1226567369
 20
43.7286078208
 30
0.0
 40
2.0
 41
0.0
 71
     1
 72
     1
  1
±0.1
  7
SLDTEXTSTYLE1
 73
     1
 44
1.0
  0
MTEXT
  5
134
330
1F
100
AcDbEntity
  8
CARTIGLIO
100
AcDbMText
 10
246.3215849949
 20
43.8887416717
 30
0.0
 40
2.0
 41
0.0
 71
     1
 72
     1
  1
±0.2
  7
SLDTEXTSTYLE1
 73
     1
 44
1.0
  0
MTEXT
  5
135
330
1F
100
AcDbEntity
  8
CARTIGLIO
100
AcDbMText
 10
255.3614588999
 20
43.7771671141
 30
0.0
 40
2.0
 41
0.0
 71
     1
 72
     1
  1
±0.3
  7
SLDTEXTSTYLE1
 73
     1
 44
1.0
  0
MTEXT
  5
136
330
1F
100
AcDbEntity
  8
CARTIGLIO
100
AcDbMText
 10
264.8759243569
 20
43.8891897667
 30
0.0
 40
2.0
 41
0.0
 71
     1
 72
     1
  1
±0.5
  7
SLDTEXTSTYLE1
 73
     1
 44
1.0
  0
MTEXT
  5
137
330
1F
100
AcDbEntity
  8
CARTIGLIO
100
AcDbMText
 10
274.2273800854
 20
44.0458771129
 30
0.0
 40
2.0
 41
0.0
 71
     1
 72
     1
  1
±0.8
  7
SLDTEXTSTYLE1
 73
     1
 44
1.0
  0
MTEXT
  5
138
330
1F
100
AcDbEntity
  8
CARTIGLIO
100
AcDbMText
 10
284.0444197202
 20
43.9563277685
 30
0.0
 40
2.0
 41
0.0
 71
     1
 72
     1
  1
±1.2
  7
SLDTEXTSTYLE1
 73
     1
 44
1.0
  0
MTEXT
  5
139
330
1F
100
AcDbEntity
  8
CARTIGLIO
100
AcDbMText
 10
294.4044579448
 20
43.9193181892
 30
0.0
 40
2.0
 41
0.0
 71
     1
 72
     1
  1
±2
  7
SLDTEXTSTYLE1
 73
     1
 44
1.0
  0
MTEXT
  5
13A
330
1F
100
AcDbEntity
  8
CARTIGLIO
100
AcDbMText
 10
285.4339705493
 20
56.8153994331
 30
0.0
 40
1.5
 41
0.0
 71
     1
 72
     1
  1
Class
  7
SLDTEXTSTYLE1
 73
     1
 44
1.0
  0
MTEXT
  5
13B
330
1F
100
AcDbEntity
  8
CARTIGLIO
100
AcDbMText
 10
285.2409795799
 20
53.1625220917
 30
0.0
 40
1.5
 41
0.0
 71
     1
 72
     1
  1
Class
  7
SLDTEXTSTYLE1
 73
     1
 44
1.0
  0
MTEXT
  5
13C
330
1F
100
AcDbEntity
  8
CARTIGLIO
100
AcDbMText
 10
295.2312109276
 20
53.4220829996
 30
0.0
 40
2.0
 41
0.0
 71
     1
 72
     1
  1
m
  7
SLDTEXTSTYLE1
 73
     1
 44
1.0
  0
MTEXT
  5
13D
330
1F
100
AcDbEntity
  8
CARTIGLIO
100
AcDbMText
 10
295.5079333872
 20
57.2423207571
 30
0.0
 40
2.0
 41
0.0
 71
     1
 72
     1
  1
K
  7
SLDTEXTSTYLE1
 73
     1
 44
1.0
  0
MTEXT
  5
13E
330
1F
100
AcDbEntity
  8
CARTIGLIO
100
AcDbMText
 10
277.712037812
 20
35.1233617646
 30
0.0
 40
2.0
 41
0.0
 71
     1
 72
     1
  1
Designed
  7
SLDTEXTSTYLE1
 73
     1
 44
1.0
  0
MTEXT
  5
13F
330
1F
100
AcDbEntity
  8
CARTIGLIO
100
AcDbMText
 10
277.7049509831
 20
29.6876883311
 30
0.0
 40
2.0
 41
0.0
 71
     1
 72
     1
  1
Draw
  7
SLDTEXTSTYLE1
 73
     1
 44
1.0
  0
MTEXT
  5
140
330
1F
100
AcDbEntity
  8
CARTIGLIO
100
AcDbMText
 10
277.5116873127
 20
24.0472723351
 30
0.0
 40
2.0
 41
0.0
 71
     1
 72
     1
  1
Checked
  7
SLDTEXTSTYLE1
 73
     1
 44
1.0
  0
MTEXT
  5
141
330
1F
100
AcDbEntity
  8
CARTIGLIO
100
AcDbMText
 10
312.6187769097
 20
35.4841590636
 30
0.0
 40
3.0
 41
0.0
 71
     1
 72
     1
  1
N. Santini
  7
SLDTEXTSTYLE1
 73
     1
 44
1.0
  0
MTEXT
  5
142
330
1F
100
AcDbEntity
  8
CARTIGLIO
100
AcDbMText
 10
312.6966740997
 20
30.1404112722
 30
0.0
 40
3.0
 41
0.0
 71
     1
 72
     1
  1
N. Santini
  7
SLDTEXTSTYLE1
 73
     1
 44
1.0
  0
MTEXT
  5
143
330
1F
100
AcDbEntity
  8
CARTIGLIO
100
AcDbMText
 10
291.2737827928
 20
29.9842602618
 30
0.0
 40
3.0
 41
0.0
 71
     1
 72
     1
  1
27/04/10
  7
SLDTEXTSTYLE1
 73
     1
 44
1.0
  0
MTEXT
  5
144
330
1F
100
AcDbEntity
  8
CARTIGLIO
100
AcDbMText
 10
299.0825641217
 20
24.9205644674
 30
0.0
 40
3.0
 41
0.0
 71
     1
 72
     1
  1
x
  7
SLDTEXTSTYLE1
 73
     1
 44
1.0
  0
MTEXT
  5
145
330
1F
100
AcDbEntity
  8
CARTIGLIO
100
AcDbMText
 10
318.1917923576
 20
40.1863749076
 30
0.0
 40
2.0
 41
0.0
 71
     1
 72
     1
  1
Name
  7
SLDTEXTSTYLE1
 73
     1
 44
1.0
  0
MTEXT
  5
146
330
1F
100
AcDbEntity
  8
CARTIGLIO
100
AcDbMText
 10
293.9340333769
 20
39.9437324191
 30
0.0
 40
2.0
 41
0.0
 71
     1
 72
     1
  1
Date
  7
SLDTEXTSTYLE1
 73
     1
 44
1.0
  0
MTEXT
  5
147
330
1F
100
AcDbEntity
  8
RIQUADRO
100
AcDbMText
 10
37.2333967494
 20
286.4593757934
 30
0.0
 40
3.5
 41
0.0
 71
     1
 72
     1
  1
1
  7
SLDTEXTSTYLE1
 73
     1
 44
1.0
  0
MTEXT
  5
148
330
1F
100
AcDbEntity
  8
RIQUADRO
100
AcDbMText
 10
85.6287607109
 20
286.5456187136
 30
0.0
 40
3.5
 41
0.0
 71
     1
 72
     1
  1
2
  7
SLDTEXTSTYLE1
 73
     1
 44
1.0
  0
MTEXT
  5
149
330
1F
100
AcDbEntity
  8
RIQUADRO
100
AcDbMText
 10
134.8278059386
 20
286.4999367594
 30
0.0
 40
3.5
 41
0.0
 71
     1
 72
     1
  1
3
  7
SLDTEXTSTYLE1
 73
     1
 44
1.0
  0
MTEXT
  5
14A
330
1F
100
AcDbEntity
  8
RIQUADRO
100
AcDbMText
 10
184.5507675723
 20
286.5895095999
 30
0.0
 40
3.5
 41
0.0
 71
     1
 72
     1
  1
4
  7
SLDTEXTSTYLE1
 73
     1
 44
1.0
  0
MTEXT
  5
14B
330
1F
100
AcDbEntity
  8
RIQUADRO
100
AcDbMText
 10
10.6097298287
 20
42.9444790491
 30
0.0
 40
3.5
 41
0.0
 71
     1
 72
     1
  1
A
  7
SLDTEXTSTYLE1
 73
     1
 44
1.0
  0
MTEXT
  5
14C
330
1F
100
AcDbEntity
  8
RIQUADRO
100
AcDbMText
 10
10.7031263322
 20
117.5433161881
 30
0.0
 40
3.5
 41
0.0
 71
     1
 72
     1
  1
B
  7
SLDTEXTSTYLE1
 73
     1
 44
1.0
  0
MTEXT
  5
14D
330
1F
100
AcDbEntity
  8
RIQUADRO
100
AcDbMText
 10
10.5882937616
 20
187.2968858037
 30
0.0
 40
3.5
 41
0.0
 71
     1
 72
     1
  1
C
  7
SLDTEXTSTYLE1
 73
     1
 44
1.0
  0
MTEXT
  5
14E
330
1F
100
AcDbEntity
  8
RIQUADRO
100
AcDbMText
 10
10.1311098431
 20
254.5998345097
 30
0.0
 40
3.5
 41
0.0
 71
     1
 72
     1
  1
D
  7
SLDTEXTSTYLE1
 73
     1
 44
1.0
  0
MTEXT
  5
14F
330
1F
100
AcDbEntity
  8
RIQUADRO
100
AcDbMText
 10
405.4059107036
 20
252.9256006416
 30
0.0
 40
3.5
 41
0.0
 71
     1
 72
     1
  1
D
  7
SLDTEXTSTYLE1
 73
     1
 44
1.0
  0
MTEXT
  5
150
330
1F
100
AcDbEntity
  8
RIQUADRO
100
AcDbMText
 10
405.3774118514
 20
184.8312384218
 30
0.0
 40
3.5
 41
0.0
 71
     1
 72
     1
  1
C
  7
SLDTEXTSTYLE1
 73
     1
 44
1.0
  0
MTEXT
  5
151
330
1F
100
AcDbEntity
  8
RIQUADRO
100
AcDbMText
 10
405.4340494449
 20
118.3137371655
 30
0.0
 40
3.5
 41
0.0
 71
     1
 72
     1
  1
B
  7
SLDTEXTSTYLE1
 73
     1
 44
1.0
  0
MTEXT
  5
152
330
1F
100
AcDbEntity
  8
RIQUADRO
100
AcDbMText
 10
405.8452725704
 20
51.9605661536
 30
0.0
 40
3.5
 41
0.0
 71
     1
 72
     1
  1
A
  7
SLDTEXTSTYLE1
 73
     1
 44
1.0
  0
MTEXT
  5
153
330
1F
100
AcDbEntity
  8
TABELLA_REV
100
AcDbMText
 10
287.5598301079
 20
280.463026735
 30
0.0
 40
2.0
 41
0.0
 71
     1
 72
     1
  1
Description
  7
SLDTEXTSTYLE1
 73
     1
 44
1.0
  0
MTEXT
  5
154
330
1F
100
AcDbEntity
  8
TABELLA_REV
100
AcDbMText
 10
359.4146452301
 20
280.7611271074
 30
0.0
 40
2.0
 41
0.0
 71
     1
 72
     1
  1
Date
  7
SLDTEXTSTYLE1
 73
     1
 44
1.0
  0
MTEXT
  5
155
330
1F
100
AcDbEntity
  8
TABELLA_REV
100
AcDbMText
 10
384.9319665857
 20
280.7746162173
 30
0.0
 40
2.0
 41
0.0
 71
     1
 72
     1
  1
Name
  7
SLDTEXTSTYLE1
 73
     1
 44
1.0
  0
MTEXT
  5
156
330
1F
100
AcDbEntity
  8
TABELLA_REV
100
AcDbMText
 10
226.7762722602
 20
280.7333810533
 30
0.0
 40
2.0
 41
0.0
 71
     1
 72
     1
  1
Rev No.
  7
SLDTEXTSTYLE1
 73
     1
 44
1.0
  0
MTEXT
  5
157
330
1F
100
AcDbEntity
  8
TABELLA_REV
100
AcDbMText
 10
241.5449064597
 20
276.5510113108
 30
0.0
 40
3.0
 41
0.0
 71
     1
 72
     1
  1
New Assembly
  7
SLDTEXTSTYLE1
 73
     1
 44
1.0
  0
MTEXT
  5
158
330
1F
100
AcDbEntity
  8
TABELLA_REV
100
AcDbMText
 10
229.6478485496
 20
276.1998274028
 30
0.0
 40
3.0
 41
0.0
 71
     1
 72
     1
  1
A
  7
SLDTEXTSTYLE1
 73
     1
 44
1.0
  0
MTEXT
  5
159
330
1F
100
AcDbEntity
  8
TABELLA_REV
100
AcDbMText
 10
376.2848085872
 20
276.5891031358
 30
0.0
 40
3.0
 41
0.0
 71
     1
 72
     1
  1
N. Santini
  7
SLDTEXTSTYLE1
 73
     1
 44
1.0
  0
MTEXT
  5
15A
330
1F
100
AcDbEntity
  8
RIQUADRO
100
AcDbMText
 10
257.69842767
 20
9.1039331007
 30
0.0
 40
2.5
 41
0.0
 71
     1
 72
     1
  1
10
  7
SLDTEXTSTYLE1
 73
     1
 44
1.0
  0
MTEXT
  5
15B
330
1F
100
AcDbEntity
  8
RIQUADRO
100
AcDbMText
 10
247.7801280954
 20
9.1039331007
 30
0.0
 40
2.5
 41
0.0
 71
     1
 72
     1
  1
9
  7
SLDTEXTSTYLE1
 73
     1
 44
1.0
  0
MTEXT
  5
15C
330
1F
100
AcDbEntity
  8
RIQUADRO
100
AcDbMText
 10
237.6297627927
 20
9.0264463853
 30
0.0
 40
2.5
 41
0.0
 71
     1
 72
     1
  1
8
  7
SLDTEXTSTYLE1
 73
     1
 44
1.0
  0
MTEXT
  5
15D
330
1F
100
AcDbEntity
  8
RIQUADRO
100
AcDbMText
 10
227.7885555154
 20
9.0264463853
 30
0.0
 40
2.5
 41
0.0
 71
     1
 72
     1
  1
7
  7
SLDTEXTSTYLE1
 73
     1
 44
1.0
  0
MTEXT
  5
15E
330
1F
100
AcDbEntity
  8
RIQUADRO
100
AcDbMText
 10
217.8245555747
 20
9.065189743
 30
0.0
 40
2.5
 41
0.0
 71
     1
 72
     1
  1
6
  7
SLDTEXTSTYLE1
 73
     1
 44
1.0
  0
MTEXT
  5
15F
330
1F
100
AcDbEntity
  8
RIQUADRO
100
AcDbMText
 10
207.7582395778
 20
9.1039331007
 30
0.0
 40
2.5
 41
0.0
 71
     1
 72
     1
  1
5
  7
SLDTEXTSTYLE1
 73
     1
 44
1.0
  0
MTEXT
  5
160
330
1F
100
AcDbEntity
  8
RIQUADRO
100
AcDbMText
 10
197.6479093325
 20
9.0721343501
 30
0.0
 40
2.5
 41
0.0
 71
     1
 72
     1
  1
4
  7
SLDTEXTSTYLE1
 73
     1
 44
1.0
  0
MTEXT
  5
161
330
1F
100
AcDbEntity
  8
RIQUADRO
100
AcDbMText
 10
187.6724115806
 20
8.9970348329
 30
0.0
 40
2.5
 41
0.0
 71
     1
 72
     1
  1
3
  7
SLDTEXTSTYLE1
 73
     1
 44
1.0
  0
MTEXT
  5
162
330
1F
100
AcDbEntity
  8
RIQUADRO
100
AcDbMText
 10
177.547281582
 20
8.9277594913
 30
0.0
 40
2.5
 41
0.0
 71
     1
 72
     1
  1
2
  7
SLDTEXTSTYLE1
 73
     1
 44
1.0
  0
MTEXT
  5
163
330
1F
100
AcDbEntity
  8
RIQUADRO
100
AcDbMText
 10
167.8424911817
 20
8.8917560639
 30
0.0
 40
2.5
 41
0.0
 71
     1
 72
     1
  1
1
  7
SLDTEXTSTYLE1
 73
     1
 44
1.0
  0
MTEXT
  5
164
330
1F
100
AcDbEntity
  8
RIQUADRO
100
AcDbMText
 10
158.082981764
 20
8.9292576544
 30
0.0
 40
2.5
 41
0.0
 71
     1
 72
     1
  1
0
  7
SLDTEXTSTYLE1
 73
     1
 44
1.0
  0
MTEXT
  5
165
330
1F
100
AcDbEntity
  8
RIQUADRO
100
AcDbMText
 10
231.6979230968
 20
286.4810495688
 30
0.0
 40
3.5
 41
0.0
 71
     1
 72
     1
  1
5
  7
SLDTEXTSTYLE1
 73
     1
 44
1.0
  0
MTEXT
  5
166
330
1F
100
AcDbEntity
  8
RIQUADRO
100
AcDbMText
 10
283.4307463495
 20
286.3091594571
 30
0.0
 40
3.5
 41
0.0
 71
     1
 72
     1
  1
6
  7
SLDTEXTSTYLE1
 73
     1
 44
1.0
  0
MTEXT
  5
167
330
1F
100
AcDbEntity
  8
RIQUADRO
100
AcDbMText
 10
331.6277043706
 20
286.4287470243
 30
0.0
 40
3.5
 41
0.0
 71
     1
 72
     1
  1
7
  7
SLDTEXTSTYLE1
 73
     1
 44
1.0
  0
MTEXT
  5
168
330
1F
100
AcDbEntity
  8
RIQUADRO
100
AcDbMText
 10
379.9714860798
 20
286.0242220935
 30
0.0
 40
3.5
 41
0.0
 71
     1
 72
     1
  1
8
  7
SLDTEXTSTYLE1
 73
     1
 44
1.0
  0
MTEXT
  5
169
330
1F
100
AcDbEntity
  8
RIQUADRO
100
AcDbMText
 10
134.4171610783
 20
14.7644466175
 30
0.0
 40
3.5
 41
0.0
 71
     1
 72
     1
  1
3
  7
SLDTEXTSTYLE1
 73
     1
 44
1.0
  0
MTEXT
  5
16A
330
1F
100
AcDbEntity
  8
RIQUADRO
100
AcDbMText
 10
85.2181158507
 20
14.8101285718
 30
0.0
 40
3.5
 41
0.0
 71
     1
 72
     1
  1
2
  7
SLDTEXTSTYLE1
 73
     1
 44
1.0
  0
MTEXT
  5
16B
330
1F
100
AcDbEntity
  8
RIQUADRO
100
AcDbMText
 10
36.8227518892
 20
14.7238856515
 30
0.0
 40
3.5
 41
0.0
 71
     1
 72
     1
  1
1
  7
SLDTEXTSTYLE1
 73
     1
 44
1.0
  0
MTEXT
  5
16C
330
1F
100
AcDbEntity
  8
RIQUADRO
100
AcDbMText
 10
378.7562673285
 20
14.3427858965
 30
0.0
 40
3.5
 41
0.0
 71
     1
 72
     1
  1
8
  7
SLDTEXTSTYLE1
 73
     1
 44
1.0
  0
MTEXT
  5
16D
330
1F
100
AcDbEntity
  8
RIQUADRO
100
AcDbMText
 10
330.4124856193
 20
14.7473108273
 30
0.0
 40
3.5
 41
0.0
 71
     1
 72
     1
  1
7
  7
SLDTEXTSTYLE1
 73
     1
 44
1.0
  0
MTEXT
  5
16E
330
1F
100
AcDbEntity
  8
RIQUADRO
100
AcDbMText
 10
282.2155275982
 20
14.62772326
 30
0.0
 40
3.5
 41
0.0
 71
     1
 72
     1
  1
6
  7
SLDTEXTSTYLE1
 73
     1
 44
1.0
  0
MTEXT
  5
16F
330
1F
100
AcDbEntity
  8
CARTIGLIO
100
AcDbMText
 10
311.05943205
 20
24.3540475146
 30
0.0
 40
3.0
 41
0.0
 71
     1
 72
     1
  1
C.Sedazzari
  7
SLDTEXTSTYLE1
 73
     1
 44
1.0
  0
MTEXT
  5
170
330
1F
100
AcDbEntity
  8
TABELLA_REV
100
AcDbMText
 10
355.2936363281
 20
276.433832384
 30
0.0
 40
3.0
 41
0.0
 71
     1
 72
     1
  1
27/08/10
  7
SLDTEXTSTYLE1
 73
     1
 44
1.0
  0
MTEXT
  5
171
330
1F
100
AcDbEntity
  8
CARTIGLIO
100
AcDbMText
 10
227.2252734621
 20
18.602869848
 30
0.0
 40
2.0
 41
0.0
 71
     1
 72
     1
  1
OPTO  ENGINEERING S.r.l.    -   46100 Mantova Italy   -   Via Cremona, 29/2 -   Tel.    +39 0376 263525    - e-mai: info@opto-engineering.com  -   http://www.opto-engineering.com
  7
SLDTEXTSTYLE2
 73
     1
 44
1.0
  0
MTEXT
  5
172
330
1F
100
AcDbEntity
  8
CARTIGLIO
100
AcDbMText
 10
291.5929878024
 20
35.4917452602
 30
0.0
 40
3.0
 41
0.0
 71
     1
 72
     1
  1
27/04/10
  7
SLDTEXTSTYLE1
 73
     1
 44
1.0
  0
MTEXT
  5
173
330
1F
100
AcDbEntity
  8
CARTIGLIO
100
AcDbMText
 10
267.185092309
 20
63.5787552185
 30
0.0
 40
3.5
 41
0.0
 71
     1
 72
     1
  1
N.A.
  7
SLDTEXTSTYLE1
 73
     1
 44
1.0
  0
MTEXT
  5
174
330
1F
100
AcDbEntity
  8
RIQUADRO
100
AcDbMText
 10
265.2930965169
 20
71.4102347125
 30
0.0
 40
3.5
 41
0.0
 71
     1
 72
     1
  1
N.A.
  7
SLDTEXTSTYLE1
 73
     1
 44
1.0
  0
LINE
  5
175
330
1F
100
AcDbEntity
  8
0
  6
Continuous
 62
     7
370
    15
100
AcDbLine
 10
59.8264067306
 20
163.2627317873
 30
0.0
 11
59.7850180688
 21
162.9929932898
 31
0.0
  0
SPLINE
  5
176
330
1F
100
AcDbEntity
  8
0
  6
Continuous
 62
     7
370
    15
100
AcDbSpline
210
0.0
220
0.0
230
1.0
 70
     8
 71
     3
 72
    18
 73
    14
 74
     0
 42
0.00000001
 43
0.00000001
 40
0.0
 40
0.0
 40
0.0
 40
0.0
 40
0.0224122243584467
 40
0.1438253311488912
 40
0.278379626562373
 40
0.4078011616547615
 40
0.4685272316258049
 40
0.5324953067741487
 40
0.613029959379081
 40
0.7138217719911587
 40
0.7948500109931168
 40
0.8894463347560877
 40
1.0
 40
1.0
 40
1.0
 40
1.0
 10
59.72242881028347
 20
161.8104380665944
 30
0.0
 10
59.72543860111234
 20
161.6920090366328
 30
0.0
 10
59.74475324635804
 20
160.9320177845614
 30
0.0
 10
59.84605574229671
 20
159.4603733564852
 30
0.0
 10
59.57944860822912
 20
157.4259399544499
 30
0.0
 10
59.05061854827439
 20
155.7808244131087
 30
0.0
 10
58.43635595787016
 20
154.5835583334826
 30
0.0
 10
57.84385032683934
 20
153.6724077642786
 30
0.0
 10
57.01225683250603
 20
152.6730172895211
 30
0.0
 10
55.98609397001603
 20
151.732659364723
 30
0.0
 10
54.79913945608399
 20
150.8776458441495
 30
0.0
 10
53.49404723825756
 20
150.1060236780194
 30
0.0
 10
52.50184303320167
 20
149.6662752221786
 30
0.0
 10
51.96715223418985
 20
149.4292983458264
 30
0.0
  0
SPLINE
  5
177
330
1F
100
AcDbEntity
  8
0
  6
Continuous
 62
     7
370
    15
100
AcDbSpline
210
0.0
220
0.0
230
1.0
 70
     8
 71
     3
 72
    19
 73
    15
 74
     0
 42
0.00000001
 43
0.00000001
 40
0.0
 40
0.0
 40
0.0
 40
0.0
 40
0.1312542287636258
 40
0.2415280320332906
 40
0.3345944114676789
 40
0.4129983226648022
 40
0.4976021537530216
 40
0.5675817303950267
 40
0.6394767253214455
 40
0.7537693809264061
 40
0.8728035970481953
 40
0.9305120854945848
 40
0.9869988502689084
 40
1.0
 40
1.0
 40
1.0
 40
1.0
 10
52.64171769354078
 20
147.7605150018456
 30
0.0
 10
53.36062610370648
 20
148.0837364329996
 30
0.0
 10
54.68352849820536
 20
148.6785137358947
 30
0.0
 10
56.38146108093884
 20
149.7612476590998
 30
0.0
 10
57.69554211000255
 20
150.8294258324001
 30
0.0
 10
58.76723984498936
 20
151.934362546435
 30
0.0
 10
59.61426176196142
 20
153.0510859943469
 30
0.0
 10
60.29893797651653
 20
154.2277114581228
 30
0.0
 10
60.91750160129266
 20
155.6374912936452
 30
0.0
 10
61.41040953962395
 20
157.4111445892525
 30
0.0
 10
61.58563351339834
 20
159.1545468275432
 30
0.0
 10
61.59963001349556
 20
160.5546715620508
 30
0.0
 10
61.53124340480606
 20
161.3156194527571
 30
0.0
 10
61.52667932371206
 20
161.7324494150347
 30
0.0
 10
61.52582538670574
 20
161.8104380665944
 30
0.0
  0
SPLINE
  5
178
330
1F
100
AcDbEntity
  8
0
  6
Continuous
 62
     7
370
    15
100
AcDbSpline
210
0.0
220
0.0
230
1.0
 70
     8
 71
     3
 72
    11
 73
     7
 74
     0
 42
0.00000001
 43
0.00000001
 40
0.0
 40
0.0
 40
0.0
 40
0.0
 40
0.1010033254779401
 40
0.4150736373574045
 40
0.7376661570046519
 40
1.0
 40
1.0
 40
1.0
 40
1.0
 10
69.20004305493084
 20
162.1511719902163
 30
0.0
 10
69.5733486628875
 20
162.099722271364
 30
0.0
 10
71.10744980071917
 20
161.8882894116639
 30
0.0
 10
73.86299349702425
 20
161.7976112794061
 30
0.0
 10
77.21806571335625
 20
161.8378743869502
 30
0.0
 10
79.39006286632855
 20
162.0541668863307
 30
0.0
 10
80.3641826812399
 20
162.1511719902163
 30
0.0
  0
LINE
  5
179
330
1F
100
AcDbEntity
  8
0
  6
Continuous
 62
     7
370
    15
100
AcDbLine
 10
57.7831223864
 20
161.8104380666
 30
0.0
 11
59.7224288103
 21
161.8104380666
 31
0.0
  0
LINE
  5
17A
330
1F
100
AcDbEntity
  8
0
  6
Continuous
 62
     7
370
    15
100
AcDbLine
 10
59.8264067306
 20
182.8104380666
 30
0.0
 11
57.7831223864
 21
182.8104380666
 31
0.0
  0
LINE
  5
17B
330
1F
100
AcDbEntity
  8
0
  6
Continuous
 62
     7
370
    15
100
AcDbLine
 10
61.5258253867
 20
161.8104380666
 30
0.0
 11
64.3664303864
 21
161.8104380666
 31
0.0
  0
LINE
  5
17C
330
1F
100
AcDbEntity
  8
0
  6
Continuous
 62
     7
370
    15
100
AcDbLine
 10
64.3664303864
 20
182.8104380666
 30
0.0
 11
59.8264067306
 21
182.8104380666
 31
0.0
  0
LINE
  5
17D
330
1F
100
AcDbEntity
  8
0
  6
Continuous
 62
     7
370
    15
100
AcDbLine
 10
141.3664303864
 20
182.8104380666
 30
0.0
 11
64.3664303864
 21
182.8104380666
 31
0.0
  0
LINE
  5
17E
330
1F
100
AcDbEntity
  8
0
  6
Continuous
 62
     7
370
    15
100
AcDbLine
 10
158.3664303864
 20
182.8104380666
 30
0.0
 11
141.3664303864
 21
182.8104380666
 31
0.0
  0
LINE
  5
17F
330
1F
100
AcDbEntity
  8
0
  6
Continuous
 62
     7
370
    15
100
AcDbLine
 10
146.8664303864
 20
161.8104380666
 30
0.0
 11
158.3664303864
 21
161.8104380666
 31
0.0
  0
LINE
  5
180
330
1F
100
AcDbEntity
  8
0
  6
Continuous
 62
     7
370
    15
100
AcDbLine
 10
146.5067097023
 20
162.1701587507
 30
0.0
 11
146.8664303864
 21
161.8104380666
 31
0.0
  0
LINE
  5
181
330
1F
100
AcDbEntity
  8
0
  6
Continuous
 62
     7
370
    15
100
AcDbLine
 10
171.8564303864
 20
180.8104380666
 30
0.0
 11
170.8564303864
 21
180.8104380666
 31
0.0
  0
LINE
  5
182
330
1F
100
AcDbEntity
  8
0
  6
Continuous
 62
     7
370
    15
100
AcDbLine
 10
170.8564303864
 20
163.8104380666
 30
0.0
 11
171.8564303864
 21
163.8104380666
 31
0.0
  0
LINE
  5
183
330
1F
100
AcDbEntity
  8
0
  6
Continuous
 62
     7
370
    15
100
AcDbLine
 10
169.3564303864
 20
162.3104380666
 30
0.0
 11
170.8564303864
 21
163.8104380666
 31
0.0
  0
LINE
  5
184
330
1F
100
AcDbEntity
  8
0
  6
Continuous
 62
     7
370
    15
100
AcDbLine
 10
170.8564303864
 20
180.8104380666
 30
0.0
 11
169.3564303864
 21
182.3104380666
 31
0.0
  0
LINE
  5
185
330
1F
100
AcDbEntity
  8
0
  6
Continuous
 62
     7
370
    15
100
AcDbLine
 10
169.3564303864
 20
182.3104380666
 30
0.0
 11
158.3664303864
 21
182.3104380666
 31
0.0
  0
LINE
  5
186
330
1F
100
AcDbEntity
  8
0
  6
Continuous
 62
     7
370
    15
100
AcDbLine
 10
158.3664303864
 20
162.3104380666
 30
0.0
 11
169.3564303864
 21
162.3104380666
 31
0.0
  0
LINE
  5
187
330
1F
100
AcDbEntity
  8
0
  6
Continuous
 62
     7
370
    15
100
AcDbLine
 10
189.8564303864
 20
182.3104380666
 30
0.0
 11
187.8564303864
 21
182.3104380666
 31
0.0
  0
LINE
  5
188
330
1F
100
AcDbEntity
  8
0
  6
Continuous
 62
     7
370
    15
100
AcDbLine
 10
187.8564303864
 20
162.3104380666
 30
0.0
 11
189.8564303864
 21
162.3104380666
 31
0.0
  0
LINE
  5
189
330
1F
100
AcDbEntity
  8
0
  6
Continuous
 62
     7
370
    15
100
AcDbLine
 10
175.8564303864
 20
162.3104380666
 30
0.0
 11
176.8564303864
 21
162.3104380666
 31
0.0
  0
LINE
  5
18A
330
1F
100
AcDbEntity
  8
0
  6
Continuous
 62
     7
370
    15
100
AcDbLine
 10
176.8564303864
 20
182.3104380666
 30
0.0
 11
175.8564303864
 21
182.3104380666
 31
0.0
  0
LINE
  5
18B
330
1F
100
AcDbEntity
  8
0
  6
Continuous
 62
     7
370
    15
100
AcDbLine
 10
175.8564303864
 20
182.3104380666
 30
0.0
 11
171.8564303864
 21
180.8104380666
 31
0.0
  0
LINE
  5
18C
330
1F
100
AcDbEntity
  8
0
  6
Continuous
 62
     7
370
    15
100
AcDbLine
 10
171.8564303864
 20
163.8104380666
 30
0.0
 11
175.8564303864
 21
162.3104380666
 31
0.0
  0
LINE
  5
18D
330
1F
100
AcDbEntity
  8
0
  6
Continuous
 62
     7
370
    15
100
AcDbLine
 10
41.4734135994
 20
181.8104380666
 30
0.0
 11
41.4734135994
 21
181.085402454
 31
0.0
  0
LINE
  5
18E
330
1F
100
AcDbEntity
  8
0
  6
Continuous
 62
     7
370
    15
100
AcDbLine
 10
26.8341702356
 20
188.3104380666
 30
0.0
 11
26.2831223864
 21
188.3104380666
 31
0.0
  0
LINE
  5
18F
330
1F
100
AcDbEntity
  8
0
  6
Continuous
 62
     7
370
    15
100
AcDbLine
 10
30.2831223864
 20
188.3104380666
 30
0.0
 11
29.714703183
 21
188.3104380666
 31
0.0
  0
LINE
  5
190
330
1F
100
AcDbEntity
  8
0
  6
Continuous
 62
     7
370
    15
100
AcDbLine
 10
26.2831223864
 20
156.3104380666
 30
0.0
 11
30.2831223864
 21
156.3104380666
 31
0.0
  0
LINE
  5
191
330
1F
100
AcDbEntity
  8
0
  6
Continuous
 62
     7
370
    15
100
AcDbLine
 10
26.2831223864
 20
188.3104380666
 30
0.0
 11
25.7831223864
 21
187.8104380666
 31
0.0
  0
LINE
  5
192
330
1F
100
AcDbEntity
  8
0
  6
Continuous
 62
     7
370
    15
100
AcDbLine
 10
25.7831223864
 20
156.8104380666
 30
0.0
 11
26.2831223864
 21
156.3104380666
 31
0.0
  0
LINE
  5
193
330
1F
100
AcDbEntity
  8
0
  6
Continuous
 62
     7
370
    15
100
AcDbLine
 10
30.2831223864
 20
156.3104380666
 30
0.0
 11
30.7831223864
 21
156.8104380666
 31
0.0
  0
LINE
  5
194
330
1F
100
AcDbEntity
  8
0
  6
Continuous
 62
     7
370
    15
100
AcDbLine
 10
30.7831223864
 20
187.8104380666
 30
0.0
 11
30.2831223864
 21
188.3104380666
 31
0.0
  0
ARC
  5
195
330
1F
100
AcDbEntity
  8
0
  6
Continuous
 62
     7
370
    15
100
AcDbCircle
 10
31.7831223864
 20
183.8104380666
 30
0.0
 40
1.0
100
AcDbArc
 50
180.0
 51
270.0
  0
ARC
  5
196
330
1F
100
AcDbEntity
  8
0
  6
Continuous
 62
     7
370
    15
100
AcDbCircle
 10
31.7831223864
 20
160.8104380666
 30
0.0
 40
1.0
100
AcDbArc
 50
90.0
 51
180.0
  0
LINE
  5
197
330
1F
100
AcDbEntity
  8
0
  6
Continuous
 62
     7
370
    15
100
AcDbLine
 10
41.3830868793
 20
182.8104380666
 30
0.0
 11
31.7831223864
 21
182.8104380666
 31
0.0
  0
LINE
  5
198
330
1F
100
AcDbEntity
  8
0
  6
Continuous
 62
     7
370
    15
100
AcDbLine
 10
57.7831223864
 20
182.8104380666
 30
0.0
 11
45.5534058935
 21
182.8104380666
 31
0.0
  0
LINE
  5
199
330
1F
100
AcDbEntity
  8
0
  6
Continuous
 62
     7
370
    15
100
AcDbLine
 10
31.7831223864
 20
161.8104380666
 30
0.0
 11
57.7831223864
 21
161.8104380666
 31
0.0
  0
LINE
  5
19A
330
1F
100
AcDbEntity
  8
0
  6
Continuous
 62
     7
370
    15
100
AcDbLine
 10
36.5818754614
 20
172.9675973343
 30
0.0
 11
36.6726836639
 21
173.22669777
 31
0.0
  0
LINE
  5
19B
330
1F
100
AcDbEntity
  8
0
  6
Continuous
 62
     7
370
    15
100
AcDbLine
 10
23.2831223864
 20
187.3104380666
 30
0.0
 11
22.7831223864
 21
186.8104380666
 31
0.0
  0
LINE
  5
19C
330
1F
100
AcDbEntity
  8
0
  6
Continuous
 62
     7
370
    15
100
AcDbLine
 10
22.7831223864
 20
157.8104380666
 30
0.0
 11
23.2831223864
 21
157.3104380666
 31
0.0
  0
LINE
  5
19D
330
1F
100
AcDbEntity
  8
0
  6
Continuous
 62
     7
370
    15
100
AcDbLine
 10
25.7831223864
 20
187.3104380666
 30
0.0
 11
23.2831223864
 21
187.3104380666
 31
0.0
  0
LINE
  5
19E
330
1F
100
AcDbEntity
  8
0
  6
Continuous
 62
     7
370
    15
100
AcDbLine
 10
23.2831223864
 20
157.3104380666
 30
0.0
 11
25.7831223864
 21
157.3104380666
 31
0.0
  0
LINE
  5
19F
330
1F
100
AcDbEntity
  8
0
  6
Continuous
 62
     7
370
    15
100
AcDbLine
 10
22.7831223864
 20
185.0104380666
 30
0.0
 11
18.7831223864
 21
185.0104380666
 31
0.0
  0
LINE
  5
1A0
330
1F
100
AcDbEntity
  8
0
  6
Continuous
 62
     7
370
    15
100
AcDbLine
 10
18.7831223864
 20
159.6104380666
 30
0.0
 11
22.7831223864
 21
159.6104380666
 31
0.0
  0
LINE
  5
1A1
330
1F
100
AcDbEntity
  8
0
  6
Continuous
 62
     7
370
    15
100
AcDbLine
 10
187.8564303864
 20
182.3104380666
 30
0.0
 11
176.8564303864
 21
182.3104380666
 31
0.0
  0
LINE
  5
1A2
330
1F
100
AcDbEntity
  8
0
  6
Continuous
 62
     7
370
    15
100
AcDbLine
 10
176.8564303864
 20
162.3104380666
 30
0.0
 11
187.8564303864
 21
162.3104380666
 31
0.0
  0
LINE
  5
1A3
330
1F
100
AcDbEntity
  8
0
  6
Continuous
 62
     7
370
    15
100
AcDbLine
 10
51.9671522756
 20
149.4292982434
 30
0.0
 11
52.6417189677
 21
147.7605118497
 31
0.0
  0
LINE
  5
1A4
330
1F
100
AcDbEntity
  8
0
  6
Continuous
 62
     7
370
    15
100
AcDbLine
 10
57.7831223864
 20
172.3104380666
 30
0.0
 11
57.7831223864
 21
182.8104380666
 31
0.0
  0
LINE
  5
1A5
330
1F
100
AcDbEntity
  8
0
  6
Continuous
 62
     7
370
    15
100
AcDbLine
 10
57.7831223864
 20
161.8104380666
 30
0.0
 11
57.7831223864
 21
172.3104380666
 31
0.0
  0
LINE
  5
1A6
330
1F
100
AcDbEntity
  8
0
  6
Continuous
 62
     7
370
    15
100
AcDbLine
 10
59.8264067306
 20
172.3104380666
 30
0.0
 11
59.8264067306
 21
182.8104380666
 31
0.0
  0
LINE
  5
1A7
330
1F
100
AcDbEntity
  8
0
  6
Continuous
 62
     7
370
    15
100
AcDbLine
 10
59.8264067306
 20
161.9654603545
 30
0.0
 11
59.8264067306
 21
172.3104380666
 31
0.0
  0
LINE
  5
1A8
330
1F
100
AcDbEntity
  8
0
  6
Continuous
 62
     7
370
    15
100
AcDbLine
 10
59.8264067306
 20
162.3145345142
 30
0.0
 11
61.4264067306
 21
162.3145345142
 31
0.0
  0
LINE
  5
1A9
330
1F
100
AcDbEntity
  8
0
  6
Continuous
 62
     7
370
    15
100
AcDbLine
 10
61.4264067306
 20
162.3145345142
 30
0.0
 11
61.4264067306
 21
161.9534688843
 31
0.0
  0
LINE
  5
1AA
330
1F
100
AcDbEntity
  8
0
  6
Continuous
 62
     7
370
    15
100
AcDbLine
 10
64.3664303864
 20
172.3104380666
 30
0.0
 11
64.3664303864
 21
182.8104380666
 31
0.0
  0
LINE
  5
1AB
330
1F
100
AcDbEntity
  8
0
  6
Continuous
 62
     7
370
    15
100
AcDbLine
 10
64.3664303864
 20
161.8104380666
 30
0.0
 11
64.3664303864
 21
172.3104380666
 31
0.0
  0
LINE
  5
1AC
330
1F
100
AcDbEntity
  8
0
  6
Continuous
 62
     7
370
    15
100
AcDbLine
 10
59.8264067306
 20
162.3145345142
 30
0.0
 11
59.8264067306
 21
182.8104380666
 31
0.0
  0
LINE
  5
1AD
330
1F
100
AcDbEntity
  8
0
  6
Continuous
 62
     7
370
    15
100
AcDbLine
 10
64.3664303864
 20
182.8104380666
 30
0.0
 11
64.3664303864
 21
162.1511719902
 31
0.0
  0
LINE
  5
1AE
330
1F
100
AcDbEntity
  8
0
  6
Continuous
 62
     7
370
    15
100
AcDbLine
 10
64.3664303864
 20
162.1511719902
 30
0.0
 11
141.3664303864
 21
162.1511719902
 31
0.0
  0
LINE
  5
1AF
330
1F
100
AcDbEntity
  8
0
  6
Continuous
 62
     7
370
    15
100
AcDbLine
 10
141.3664303864
 20
182.8104380666
 30
0.0
 11
141.3664303864
 21
162.1511719902
 31
0.0
  0
LINE
  5
1B0
330
1F
100
AcDbEntity
  8
0
  6
Continuous
 62
     7
370
    15
100
AcDbLine
 10
141.3664303864
 20
162.1701587507
 30
0.0
 11
146.8664303864
 21
162.1701587507
 31
0.0
  0
LINE
  5
1B1
330
1F
100
AcDbEntity
  8
0
  6
Continuous
 62
     7
370
    15
100
AcDbLine
 10
141.3664303864
 20
182.8104380666
 30
0.0
 11
141.3664303864
 21
162.1701587507
 31
0.0
  0
LINE
  5
1B2
330
1F
100
AcDbEntity
  8
0
  6
Continuous
 62
     7
370
    15
100
AcDbLine
 10
146.5256964628
 20
162.1511719902
 30
0.0
 11
141.3664303864
 21
162.1511719902
 31
0.0
  0
LINE
  5
1B3
330
1F
100
AcDbEntity
  8
0
  6
Continuous
 62
     7
370
    15
100
AcDbLine
 10
146.8664303864
 20
162.1701587507
 30
0.0
 11
146.8664303864
 21
161.8104380666
 31
0.0
  0
LINE
  5
1B4
330
1F
100
AcDbEntity
  8
0
  6
Continuous
 62
     7
370
    15
100
AcDbLine
 10
158.3664303864
 20
182.8104380666
 30
0.0
 11
158.3664303864
 21
161.8104380666
 31
0.0
  0
LINE
  5
1B5
330
1F
100
AcDbEntity
  8
0
  6
Continuous
 62
     7
370
    15
100
AcDbLine
 10
170.8564303864
 20
180.8104380666
 30
0.0
 11
170.8564303864
 21
163.8104380666
 31
0.0
  0
LINE
  5
1B6
330
1F
100
AcDbEntity
  8
0
  6
Continuous
 62
     7
370
    15
100
AcDbLine
 10
171.8564303864
 20
180.8104380666
 30
0.0
 11
171.8564303864
 21
163.8104380666
 31
0.0
  0
LINE
  5
1B7
330
1F
100
AcDbEntity
  8
0
  6
Continuous
 62
     7
370
    15
100
AcDbLine
 10
170.8564303864
 20
172.3104380666
 30
0.0
 11
170.8564303864
 21
163.8104380666
 31
0.0
  0
LINE
  5
1B8
330
1F
100
AcDbEntity
  8
0
  6
Continuous
 62
     7
370
    15
100
AcDbLine
 10
170.8564303864
 20
180.8104380666
 30
0.0
 11
170.8564303864
 21
172.3104380666
 31
0.0
  0
LINE
  5
1B9
330
1F
100
AcDbEntity
  8
0
  6
Continuous
 62
     7
370
    15
100
AcDbLine
 10
169.3564303864
 20
172.3104380666
 30
0.0
 11
169.3564303864
 21
182.3104380666
 31
0.0
  0
LINE
  5
1BA
330
1F
100
AcDbEntity
  8
0
  6
Continuous
 62
     7
370
    15
100
AcDbLine
 10
169.3564303864
 20
162.3104380666
 30
0.0
 11
169.3564303864
 21
172.3104380666
 31
0.0
  0
LINE
  5
1BB
330
1F
100
AcDbEntity
  8
0
  6
Continuous
 62
     7
370
    15
100
AcDbLine
 10
189.8564303864
 20
182.3104380666
 30
0.0
 11
189.8564303864
 21
162.3104380666
 31
0.0
  0
LINE
  5
1BC
330
1F
100
AcDbEntity
  8
0
  6
Continuous
 62
     7
370
    15
100
AcDbLine
 10
187.8564303864
 20
182.3104380666
 30
0.0
 11
187.8564303864
 21
162.3104380666
 31
0.0
  0
LINE
  5
1BD
330
1F
100
AcDbEntity
  8
0
  6
Continuous
 62
     7
370
    15
100
AcDbLine
 10
176.8564303864
 20
172.3104380666
 30
0.0
 11
176.8564303864
 21
182.3104380666
 31
0.0
  0
LINE
  5
1BE
330
1F
100
AcDbEntity
  8
0
  6
Continuous
 62
     7
370
    15
100
AcDbLine
 10
176.8564303864
 20
162.3104380666
 30
0.0
 11
176.8564303864
 21
172.3104380666
 31
0.0
  0
LINE
  5
1BF
330
1F
100
AcDbEntity
  8
0
  6
Continuous
 62
     7
370
    15
100
AcDbLine
 10
175.8564303864
 20
172.3104380666
 30
0.0
 11
175.8564303864
 21
182.3104380666
 31
0.0
  0
LINE
  5
1C0
330
1F
100
AcDbEntity
  8
0
  6
Continuous
 62
     7
370
    15
100
AcDbLine
 10
175.8564303864
 20
162.3104380666
 30
0.0
 11
175.8564303864
 21
172.3104380666
 31
0.0
  0
LINE
  5
1C1
330
1F
100
AcDbEntity
  8
0
  6
Continuous
 62
     7
370
    15
100
AcDbLine
 10
171.8564303864
 20
172.3104380666
 30
0.0
 11
171.8564303864
 21
180.8104380666
 31
0.0
  0
LINE
  5
1C2
330
1F
100
AcDbEntity
  8
0
  6
Continuous
 62
     7
370
    15
100
AcDbLine
 10
171.8564303864
 20
163.8104380666
 30
0.0
 11
171.8564303864
 21
172.3104380666
 31
0.0
  0
LINE
  5
1C3
330
1F
100
AcDbEntity
  8
0
  6
Continuous
 62
     7
370
    15
100
AcDbLine
 10
41.5369219263
 20
181.8104380666
 30
0.0
 11
41.4734135994
 21
181.8104380666
 31
0.0
  0
LINE
  5
1C4
330
1F
100
AcDbEntity
  8
0
  6
Continuous
 62
     7
370
    15
100
AcDbLine
 10
41.5369219263
 20
181.8104380666
 30
0.0
 11
41.5369219263
 21
182.8104380666
 31
0.0
  0
LINE
  5
1C5
330
1F
100
AcDbEntity
  8
0
  6
Continuous
 62
     7
370
    15
100
AcDbLine
 10
41.5369219263
 20
182.8104380666
 30
0.0
 11
45.4099052725
 21
182.8104380666
 31
0.0
  0
LINE
  5
1C6
330
1F
100
AcDbEntity
  8
0
  6
Continuous
 62
     7
370
    15
100
AcDbLine
 10
45.4099052725
 20
182.8104380666
 30
0.0
 11
45.4099052725
 21
182.7985265483
 31
0.0
  0
LINE
  5
1C7
330
1F
100
AcDbEntity
  8
0
  6
Continuous
 62
     7
370
    15
100
AcDbLine
 10
30.2831223864
 20
156.3104380666
 30
0.0
 11
30.2831223864
 21
188.3104380666
 31
0.0
  0
LINE
  5
1C8
330
1F
100
AcDbEntity
  8
0
  6
Continuous
 62
     7
370
    15
100
AcDbLine
 10
26.2831223864
 20
172.3104380666
 30
0.0
 11
26.2831223864
 21
156.3104380666
 31
0.0
  0
LINE
  5
1C9
330
1F
100
AcDbEntity
  8
0
  6
Continuous
 62
     7
370
    15
100
AcDbLine
 10
26.2831223864
 20
188.3104380666
 30
0.0
 11
26.2831223864
 21
172.3104380666
 31
0.0
  0
SPLINE
  5
1CA
330
1F
100
AcDbEntity
  8
0
  6
Continuous
 62
     7
370
    15
100
AcDbSpline
210
0.0
220
0.0
230
1.0
 70
     8
 71
     3
 72
    12
 73
     8
 74
     0
 42
0.00000001
 43
0.00000001
 40
0.0
 40
0.0
 40
0.0
 40
0.0
 40
0.2142375152367573
 40
0.4284536784957532
 40
0.6432235796434485
 40
0.858357383080452
 40
1.0
 40
1.0
 40
1.0
 40
1.0
 10
28.28312238638328
 20
188.2445994816172
 30
0.0
 10
28.44570937793273
 20
188.246086041733
 30
0.0
 10
28.7708671568023
 20
188.2490590138068
 30
0.0
 10
29.20545308370597
 20
188.2699358145028
 30
0.0
 10
29.53059731090346
 20
188.2925667854631
 30
0.0
 10
29.71568661730341
 20
188.308839978139
 30
0.0
 10
29.71498265910397
 20
188.3088000650187
 30
0.0
 10
29.71470318300666
 20
188.3087842192438
 30
0.0
  0
SPLINE
  5
1CB
330
1F
100
AcDbEntity
  8
0
  6
Continuous
 62
     7
370
    15
100
AcDbSpline
210
0.0
220
0.0
230
1.0
 70
     8
 71
     3
 72
    13
 73
     9
 74
     0
 42
0.00000001
 43
0.00000001
 40
0.0
 40
0.0
 40
0.0
 40
0.0
 40
0.0027855386273626
 40
0.2166622701374741
 40
0.4305248625753413
 40
0.6451436505299928
 40
0.8601190573441082
 40
1.0
 40
1.0
 40
1.0
 40
1.0
 10
26.83417023560417
 20
188.3103456628187
 30
0.0
 10
26.8338212634876
 20
188.3103764332319
 30
0.0
 10
26.80667782693763
 20
188.3127697899459
 30
0.0
 10
26.90272806865204
 20
188.3040292378457
 30
0.0
 10
27.12804277947066
 20
188.2854531114529
 30
0.0
 10
27.50266110130958
 20
188.2619479858345
 30
0.0
 10
27.9082360104496
 20
188.2468541472518
 30
0.0
 10
28.1771278303046
 20
188.2452369608599
 30
0.0
 10
28.28312238638328
 20
188.2445994816172
 30
0.0
  0
LINE
  5
1CC
330
1F
100
AcDbEntity
  8
0
  6
Continuous
 62
     7
370
    15
100
AcDbLine
 10
25.7831223864
 20
172.3104380666
 30
0.0
 11
25.7831223864
 21
187.8104380666
 31
0.0
  0
LINE
  5
1CD
330
1F
100
AcDbEntity
  8
0
  6
Continuous
 62
     7
370
    15
100
AcDbLine
 10
25.7831223864
 20
156.8104380666
 30
0.0
 11
25.7831223864
 21
172.3104380666
 31
0.0
  0
LINE
  5
1CE
330
1F
100
AcDbEntity
  8
0
  6
Continuous
 62
     7
370
    15
100
AcDbLine
 10
30.7831223864
 20
187.8104380666
 30
0.0
 11
30.7831223864
 21
156.8104380666
 31
0.0
  0
SPLINE
  5
1CF
330
1F
100
AcDbEntity
  8
0
  6
Continuous
 62
     7
370
    15
100
AcDbSpline
210
0.0
220
0.0
230
1.0
 70
     8
 71
     3
 72
    24
 73
    20
 74
     0
 42
0.00000001
 43
0.00000001
 40
0.0
 40
0.0
 40
0.0
 40
0.0
 40
0.1249999999999999
 40
0.1249999999999999
 40
0.2499999999999997
 40
0.2499999999999997
 40
0.3749999999999996
 40
0.3749999999999996
 40
0.4999999999999996
 40
0.4999999999999996
 40
0.6249999999999996
 40
0.6249999999999996
 40
0.6874999999999997
 40
0.6874999999999997
 40
0.7499999999999998
 40
0.7499999999999998
 40
0.8749999999999999
 40
0.8749999999999999
 40
1.0
 40
1.0
 40
1.0
 40
1.0
 10
45.3476316279552
 20
182.7881328935226
 30
0.0
 10
45.13425131789213
 20
182.740707377969
 30
0.0
 10
44.91000047562071
 20
182.6161013172859
 30
0.0
 10
44.4537044612364
 20
182.2106338361277
 30
0.0
 10
44.22176911998189
 20
181.9297990476637
 30
0.0
 10
43.76591744890077
 20
181.2309500117187
 30
0.0
 10
43.54328456930181
 20
180.8140264806953
 30
0.0
 10
43.11530680837578
 20
179.8757929483278
 30
0.0
 10
42.89062412632075
 20
179.3402673304462
 30
0.0
 10
42.43390874732101
 20
178.1644722579881
 30
0.0
 10
42.2019865953457
 20
177.5244489708418
 30
0.0
 10
41.86044977220223
 20
176.5186769527691
 30
0.0
 10
41.74766322938767
 20
176.1758924777443
 30
0.0
 10
41.52602961441368
 20
175.4813720001348
 30
0.0
 10
41.41820169171267
 20
175.1307539908219
 30
0.0
 10
41.0963204874608
 20
174.0673567587125
 30
0.0
 10
40.87121779383981
 20
173.3289293922577
 30
0.0
 10
40.41410810617296
 20
171.8400601435197
 30
0.0
 10
40.1822123302315
 20
171.0899849147286
 30
0.0
 10
39.95476814025256
 20
170.3594494871631
 30
0.0
  0
LINE
  5
1D0
330
1F
100
AcDbEntity
  8
0
  6
Continuous
 62
     7
370
    15
100
AcDbLine
 10
40.348123741
 20
171.6315126537
 30
0.0
 11
40.0160534109
 21
170.7104956924
 31
0.0
  0
SPLINE
  5
1D1
330
1F
100
AcDbEntity
  8
0
  6
Continuous
 62
     7
370
    15
100
AcDbSpline
210
0.0
220
0.0
230
1.0
 70
     8
 71
     3
 72
    15
 73
    11
 74
     0
 42
0.00000001
 43
0.00000001
 40
0.0
 40
0.0
 40
0.0
 40
0.0
 40
0.1126510976092862
 40
0.2373770817434484
 40
0.3605066965723295
 40
0.4836363114012107
 40
0.6083622955353731
 40
0.7314919103642543
 40
0.8649660632188628
 40
1.0
 40
1.0
 40
1.0
 40
1.0
 10
41.53275758165884
 20
182.7808498388827
 30
0.0
 10
41.33301788978783
 20
182.7827003542305
 30
0.0
 10
40.91212873583458
 20
182.7865997386336
 30
0.0
 10
40.24640604194177
 20
182.2270895144985
 30
0.0
 10
39.58886296375967
 20
181.2558330068202
 30
0.0
 10
38.93130892472369
 20
179.8826893316768
 30
0.0
 10
38.24626944716775
 20
178.1867810609494
 30
0.0
 10
37.57125457481353
 20
176.1729553200938
 30
0.0
 10
36.87332031294652
 20
173.9137843273696
 30
0.0
 10
36.38235170398691
 20
172.3207823310428
 30
0.0
 10
36.13544136250069
 20
171.5196543979663
 30
0.0
  0
SPLINE
  5
1D2
330
1F
100
AcDbEntity
  8
0
  6
Continuous
 62
     7
370
    15
100
AcDbSpline
210
0.0
220
0.0
230
1.0
 70
     8
 71
     3
 72
    20
 73
    16
 74
     0
 42
0.00000001
 43
0.00000001
 40
0.0
 40
0.0
 40
0.0
 40
0.0
 40
0.125
 40
0.125
 40
0.2500000000000001
 40
0.2500000000000001
 40
0.3750000000000001
 40
0.3750000000000001
 40
0.5000000000000001
 40
0.5000000000000001
 40
0.6250000000000001
 40
0.6250000000000001
 40
0.7500000000000002
 40
0.7500000000000002
 40
1.0
 40
1.0
 40
1.0
 40
1.0
 10
37.34861852587807
 20
169.1071974560515
 30
0.0
 10
37.22887340785744
 20
169.148703828045
 30
0.0
 10
37.11519438431571
 20
169.2004488910482
 30
0.0
 10
36.89949737216067
 20
169.3239066701712
 30
0.0
 10
36.79654783305836
 20
169.3964704966889
 30
0.0
 10
36.60791802630408
 20
169.5590779096155
 30
0.0
 10
36.52275430965578
 20
169.6483125639835
 30
0.0
 10
36.3704924402177
 20
169.842760227916
 30
0.0
 10
36.30300211490403
 20
169.9491312703672
 30
0.0
 10
36.19193422376774
 20
170.1700947019955
 30
0.0
 10
36.14760103703585
 20
170.2852940262928
 30
0.0
 10
36.08140704620826
 20
170.5253359106658
 30
0.0
 10
36.05997679829667
 20
170.6498219109336
 30
0.0
 10
36.03204978493621
 20
171.0219540236123
 30
0.0
 10
36.0610668034308
 20
171.2766207824582
 30
0.0
 10
36.13544136250067
 20
171.5196543979663
 30
0.0
  0
LINE
  5
1D3
330
1F
100
AcDbEntity
  8
0
  6
Continuous
 62
     7
370
    15
100
AcDbLine
 10
37.3486185259
 20
169.1071974561
 30
0.0
 11
37.3613144233
 21
169.1027970845
 31
0.0
  0
SPLINE
  5
1D4
330
1F
100
AcDbEntity
  8
0
  6
Continuous
 62
     7
370
    15
100
AcDbSpline
210
0.0
220
0.0
230
1.0
 70
     8
 71
     3
 72
    20
 73
    16
 74
     0
 42
0.00000001
 43
0.00000001
 40
0.0
 40
0.0
 40
0.0
 40
0.0
 40
0.1249999999999994
 40
0.1249999999999994
 40
0.2499999999999987
 40
0.2499999999999987
 40
0.3749999999999981
 40
0.3749999999999981
 40
0.4999999999999974
 40
0.4999999999999974
 40
0.7500000000000019
 40
0.7500000000000019
 40
0.875000000000001
 40
0.875000000000001
 40
1.0
 40
1.0
 40
1.0
 40
1.0
 10
39.95476814025256
 20
170.3594494871631
 30
0.0
 10
39.91485489619713
 20
170.2312508340594
 30
0.0
 10
39.86258022708684
 20
170.1096430187497
 30
0.0
 10
39.73405806625018
 20
169.8789637950968
 30
0.0
 10
39.65669599028948
 20
169.7687711621068
 30
0.0
 10
39.48245486319193
 20
169.5687507219729
 30
0.0
 10
39.38583808252934
 20
169.4785714284278
 30
0.0
 10
39.17350707226726
 20
169.3175665520612
 30
0.0
 10
39.05770406671957
 20
169.2471706915988
 30
0.0
 10
38.6968087365307
 20
169.0744597945073
 30
0.0
 10
38.42884957469081
 20
169.0064942206155
 30
0.0
 10
38.02569127029307
 20
168.9841706185904
 30
0.0
 10
37.88854567465946
 20
168.989772689482
 30
0.0
 10
37.62063938895313
 20
169.0270384922146
 30
0.0
 10
37.48952441722861
 20
169.0583629409136
 30
0.0
 10
37.36131442331472
 20
169.1027970844593
 30
0.0
  0
LINE
  5
1D5
330
1F
100
AcDbEntity
  8
0
  6
Continuous
 62
     7
370
    15
100
AcDbLine
 10
45.347631628
 20
182.7881328935
 30
0.0
 11
45.5534058935
 21
182.7614204151
 31
0.0
  0
LINE
  5
1D6
330
1F
100
AcDbEntity
  8
0
  6
Continuous
 62
     7
370
    15
100
AcDbLine
 10
57.7831223864
 20
182.8104380666
 30
0.0
 11
57.7831223864
 21
161.8104380666
 31
0.0
  0
SPLINE
  5
1D7
330
1F
100
AcDbEntity
  8
0
  6
Continuous
 62
     7
370
    15
100
AcDbSpline
210
0.0
220
0.0
230
1.0
 70
     8
 71
     3
 72
    15
 73
    11
 74
     0
 42
0.00000001
 43
0.00000001
 40
0.0
 40
0.0
 40
0.0
 40
0.0
 40
0.1139526671983523
 40
0.2539725527550211
 40
0.3921168093995757
 40
0.5302610660441303
 40
0.6702809516007991
 40
0.8084252082453536
 40
0.9462696059246622
 40
1.0
 40
1.0
 40
1.0
 40
1.0
 10
41.47341359942742
 20
181.2751308032858
 30
0.0
 10
41.29323265389659
 20
181.2810696778688
 30
0.0
 10
40.89165350863072
 20
181.2943059730378
 30
0.0
 10
40.24660817403117
 20
180.8430542797795
 30
0.0
 10
39.58889577532837
 20
180.0305701997091
 30
0.0
 10
38.93097465314535
 20
178.8686841437052
 30
0.0
 10
38.24676517882697
 20
177.4301491128491
 30
0.0
 10
37.58921440378001
 20
175.7589962353983
 30
0.0
 10
37.06862995051294
 20
174.3215428203879
 30
0.0
 10
36.75696608680921
 20
173.4569439045166
 30
0.0
 10
36.66955467916802
 20
173.2144524992467
 30
0.0
  0
SPLINE
  5
1D8
330
1F
100
AcDbEntity
  8
0
  6
Continuous
 62
     7
370
    15
100
AcDbSpline
210
0.0
220
0.0
230
1.0
 70
     8
 71
     3
 72
    11
 73
     7
 74
     0
 42
0.00000001
 43
0.00000001
 40
0.0
 40
0.0
 40
0.0
 40
0.0
 40
0.2536096607809838
 40
0.5294085918729661
 40
0.8029625007569977
 40
1.0
 40
1.0
 40
1.0
 40
1.0
 10
36.13986002858773
 20
171.3183151384897
 30
0.0
 10
36.15645455416973
 20
171.1184497323606
 30
0.0
 10
36.19109552326419
 20
170.7012319383021
 30
0.0
 10
36.51183489836091
 20
170.1481834178715
 30
0.0
 10
36.94523096395523
 20
169.7473740276864
 30
0.0
 10
37.2862888597668
 20
169.6032060728069
 30
0.0
 10
37.42909043609656
 20
169.5428426815298
 30
0.0
  0
SPLINE
  5
1D9
330
1F
100
AcDbEntity
  8
0
  6
Continuous
 62
     7
370
    15
100
AcDbSpline
210
0.0
220
0.0
230
1.0
 70
     8
 71
     3
 72
    18
 73
    14
 74
     0
 42
0.00000001
 43
0.00000001
 40
0.0
 40
0.0
 40
0.0
 40
0.0
 40
0.1249999999999984
 40
0.1249999999999984
 40
0.2499999999999969
 40
0.2499999999999969
 40
0.3749999999999953
 40
0.3749999999999953
 40
0.4999999999999938
 40
0.4999999999999938
 40
0.7499999999999969
 40
0.7499999999999969
 40
1.0
 40
1.0
 40
1.0
 40
1.0
 10
37.44763694080085
 20
169.5364201718794
 30
0.0
 10
37.57235679669063
 20
169.4932359210461
 30
0.0
 10
37.69945869702592
 20
169.4625686516431
 30
0.0
 10
37.9582334720511
 20
169.4250014761344
 30
0.0
 10
38.09138912858326
 20
169.4182321533342
 30
0.0
 10
38.35441173426554
 20
169.4296668792759
 30
0.0
 10
38.48389417176515
 20
169.4475177592683
 30
0.0
 10
38.73882935302986
 20
169.5074702775216
 30
0.0
 10
38.86481776583636
 20
169.5501143063262
 30
0.0
 10
39.22030425030713
 20
169.7101264903175
 30
0.0
 10
39.43676092226364
 20
169.8640499980798
 30
0.0
 10
39.78804948147499
 20
170.2395722130755
 30
0.0
 10
39.92665276635851
 20
170.4645245610957
 30
0.0
 10
40.01605341086786
 20
170.7104956923606
 30
0.0
  0
LINE
  5
1DA
330
1F
100
AcDbEntity
  8
0
  6
Continuous
 62
     7
370
    15
100
AcDbLine
 10
37.4290904361
 20
169.5428426815
 30
0.0
 11
37.4476369408
 21
169.5364201719
 31
0.0
  0
LINE
  5
1DB
330
1F
100
AcDbEntity
  8
0
  6
Continuous
 62
     7
370
    15
100
AcDbLine
 10
23.2831223864
 20
172.3104380666
 30
0.0
 11
23.2831223864
 21
157.3104380666
 31
0.0
  0
LINE
  5
1DC
330
1F
100
AcDbEntity
  8
0
  6
Continuous
 62
     7
370
    15
100
AcDbLine
 10
23.2831223864
 20
187.3104380666
 30
0.0
 11
23.2831223864
 21
172.3104380666
 31
0.0
  0
LINE
  5
1DD
330
1F
100
AcDbEntity
  8
0
  6
Continuous
 62
     7
370
    15
100
AcDbLine
 10
22.7831223864
 20
172.3104380666
 30
0.0
 11
22.7831223864
 21
186.8104380666
 31
0.0
  0
LINE
  5
1DE
330
1F
100
AcDbEntity
  8
0
  6
Continuous
 62
     7
370
    15
100
AcDbLine
 10
22.7831223864
 20
157.8104380666
 30
0.0
 11
22.7831223864
 21
172.3104380666
 31
0.0
  0
LINE
  5
1DF
330
1F
100
AcDbEntity
  8
0
  6
Continuous
 62
     7
370
    15
100
AcDbLine
 10
18.7831223864
 20
185.0104380666
 30
0.0
 11
18.7831223864
 21
159.6104380666
 31
0.0
  0
LINE
  5
1E0
330
1F
100
AcDbEntity
  8
0
  6
Continuous
 62
     7
370
    15
100
AcDbLine
 10
40.6341268563
 20
181.085402454
 30
0.0
 11
43.7275763495
 21
181.085402454
 31
0.0
  0
LINE
  5
1E1
330
1F
100
AcDbEntity
  8
0
  6
Continuous
 62
     7
370
    15
100
AcDbLine
 10
176.8564303864
 20
182.3104380666
 30
0.0
 11
176.8564303864
 21
162.3104380666
 31
0.0
  0
LINE
  5
1E2
330
1F
100
AcDbEntity
  8
RIQUADRO
100
AcDbLine
 10
183.7723469808
 20
182.2925969803
 30
0.0
 11
183.7723469808
 21
172.2925969803
 31
0.0
  0
LINE
  5
1E3
330
1F
100
AcDbEntity
  8
RIQUADRO
100
AcDbLine
 10
183.7723469808
 20
182.2925969803
 30
0.0
 11
183.7723469808
 21
260.6480663276
 31
0.0
  0
LINE
  5
1E4
330
1F
100
AcDbEntity
  8
RIQUADRO
100
AcDbLine
 10
186.2173769475
 20
182.2925969803
 30
0.0
 11
214.8966005808
 21
251.5303676341
 31
0.0
  0
LINE
  5
1E5
330
1F
100
AcDbEntity
  8
RIQUADRO
100
AcDbLine
 10
180.4683024767
 20
182.2925969803
 30
0.0
 11
127.4497054231
 21
251.387777893
 31
0.0
  0
LINE
  5
1E6
330
1F
100
AcDbEntity
  8
RIQUADRO
100
AcDbLine
 10
164.8199999559
 20
189.7925969803
 30
0.0
 11
206.2804119724
 21
189.7925969803
 31
0.0
  0
LINE
  5
1E7
330
1F
100
AcDbEntity
  8
RIQUADRO
100
AcDbLine
 10
149.4632484174
 20
209.7925969803
 30
0.0
 11
210.9447083242
 21
209.7925969803
 31
0.0
  0
LINE
  5
1E8
330
1F
100
AcDbEntity
  8
RIQUADRO
100
AcDbLine
 10
137.352476995
 20
222.2925969803
 30
0.0
 11
210.9447083242
 21
222.2925969803
 31
0.0
  0
LINE
  5
1E9
330
1F
100
AcDbEntity
  8
RIQUADRO
100
AcDbLine
 10
196.9200277429
 20
172.2925969803
 30
0.0
 11
167.1730918405
 21
172.2925969803
 31
0.0
  0
LINE
  5
1EA
330
1F
100
AcDbEntity
  8
RIQUADRO
100
AcDbLine
 10
187.3042214103
 20
182.2925969803
 30
0.0
 11
176.7598977953
 21
182.2925969803
 31
0.0
  0
LINE
  5
1EB
330
1F
100
AcDbEntity
  8
RIQUADRO
100
AcDbLine
 10
122.7992345646
 20
247.2925969803
 30
0.0
 11
225.0518264248
 21
247.2925969803
 31
0.0
  0
LINE
  5
1EC
330
1F
100
AcDbEntity
  8
RIQUADRO
100
AcDbLine
 10
210.9447083242
 20
222.2925969803
 30
0.0
 11
132.1799741807
 21
222.2925969803
 31
0.0
  0
DIMENSION
  5
1ED
330
1F
100
AcDbEntity
  8
RIQUADRO
100
AcDbDimension
  2
*D13
 10
183.7723469808
 20
182.2925969803
 30
0.0
 11
199.8564303864
 21
252.3104380666
 31
0.0
 70
   162
 71
     1
 42
-1.0
  3
SLDDIMSTYLE0
100
AcDb2LineAngularDimension
 13
214.8966005808
 23
251.5303676341
 33
0.0
 14
186.2173769475
 24
182.2925969803
 34
0.0
 15
183.7723469808
 25
260.6480663276
 35
0.0
 16
198.9124686508
 26
252.5043040618
 36
0.0
  0
DIMENSION
  5
1F6
330
1F
100
AcDbEntity
  8
RIQUADRO
100
AcDbDimension
  2
*D14
 10
180.4683024767
 20
182.2925969803
 30
0.0
 11
137.6703602789
 21
260.1276129577
 31
0.0
 70
   162
 71
     1
 42
-1.0
  3
SLDDIMSTYLE0
100
AcDb2LineAngularDimension
 13
183.7723469808
 23
260.6480663276
 33
0.0
 14
183.7723469808
 24
182.2925969803
 34
0.0
 15
127.4497054231
 25
251.387777893
 35
0.0
 16
153.4946506465
 26
267.1818995068
 36
0.0
  0
DIMENSION
  5
200
330
1F
100
AcDbEntity
  8
RIQUADRO
100
AcDbDimension
  2
*D15
 10
235.8564303864
 20
97.2925969803
 30
0.0
 11
235.8564303864
 21
171.9848131526
 31
0.0
 70
   160
 71
     2
 42
-1.0
  3
SLDDIMSTYLE1
100
AcDbAlignedDimension
 13
225.0518264248
 23
247.2925969803
 33
0.0
 14
225.0518264248
 24
97.2925969803
 34
0.0
 50
90.0
100
AcDbRotatedDimension
  0
DIMENSION
  5
20B
330
1F
100
AcDbEntity
  8
RIQUADRO
100
AcDbDimension
  2
*D16
 10
229.8564303864
 20
122.2925969803
 30
0.0
 11
229.8564303864
 21
171.9848131526
 31
0.0
 70
   160
 71
     2
 42
-1.0
  3
SLDDIMSTYLE1
100
AcDbAlignedDimension
 13
210.9447083242
 23
222.2925969803
 33
0.0
 14
210.9447083242
 24
122.2925969803
 34
0.0
 50
90.0
100
AcDbRotatedDimension
  0
DIMENSION
  5
215
330
1F
100
AcDbEntity
  8
RIQUADRO
100
AcDbDimension
  2
*D17
 10
221.7766639075
 20
134.7925969803
 30
0.0
 11
221.7766639075
 21
170.2844849627
 31
0.0
 70
   160
 71
     2
 42
-1.0
  3
SLDDIMSTYLE1
100
AcDbAlignedDimension
 13
210.9447083242
 23
209.7925969803
 33
0.0
 14
210.9447083242
 24
134.7925969803
 34
0.0
 50
90.0
100
AcDbRotatedDimension
  0
DIMENSION
  5
21F
330
1F
100
AcDbEntity
  8
RIQUADRO
100
AcDbDimension
  2
*D18
 10
211.8564303864
 20
154.7925969803
 30
0.0
 11
211.8564303864
 21
170.2844849627
 31
0.0
 70
   160
 71
     2
 42
-1.0
  3
SLDDIMSTYLE1
100
AcDbAlignedDimension
 13
206.2804119724
 23
189.7925969803
 33
0.0
 14
206.2804119724
 24
154.7925969803
 34
0.0
 50
90.0
100
AcDbRotatedDimension
  0
DIMENSION
  5
229
330
1F
100
AcDbEntity
  8
RIQUADRO
100
AcDbDimension
  2
*D19
 10
32.5003451361
 20
188.3104380666
 30
0.0
 11
32.5003451361
 21
213.2842010155
 31
0.0
 70
   160
  1
%%c<>
 71
     2
 42
-1.0
  3
SLDDIMSTYLE1
100
AcDbAlignedDimension
 13
30.2831223864
 23
156.3104380666
 33
0.0
 14
26.8341702356
 24
188.3104380666
 34
0.0
 50
90.0
100
AcDbRotatedDimension
  0
DIMENSION
  5
235
330
1F
100
AcDbEntity
  8
RIQUADRO
100
AcDbDimension
  2
*D20
 10
189.8564303864
 20
151.1839946617
 30
0.0
 11
125.0714783934
 21
151.1839946617
 31
0.0
 70
   160
 71
     2
 42
-1.0
  3
SLDDIMSTYLE1
100
AcDbAlignedDimension
 13
61.4264067306
 23
162.3145345142
 33
0.0
 14
189.8564303864
 24
162.3104380666
 34
0.0
100
AcDbRotatedDimension
  0
INSERT
  5
249
330
1F
100
AcDbEntity
  8
RIQUADRO
100
AcDbBlockReference
  2
SW_NOTE_12
 10
61.5695838704
 20
138.3163846727
 30
0.0
  0
LEADER
  5
24B
330
1F
100
AcDbEntity
  8
RIQUADRO
100
AcDbLeader
  3
SLDDIMSTYLE2
 76
     2
 10
56.1516601395
 20
151.0917382441
 30
0.0
 10
61.5695838704
 20
138.3163846727
 30
0.0
  0
LINE
  5
24C
330
1F
100
AcDbEntity
  8
0
  6
Continuous
 62
     7
370
    15
100
AcDbLine
 10
57.7831223864
 20
99.3730531901
 30
0.0
 11
59.8264067306
 21
99.3730531901
 31
0.0
  0
LINE
  5
24D
330
1F
100
AcDbEntity
  8
0
  6
Continuous
 62
     7
370
    15
100
AcDbLine
 10
59.8264067306
 20
120.3730531901
 30
0.0
 11
57.7831223864
 21
120.3730531901
 31
0.0
  0
LINE
  5
24E
330
1F
100
AcDbEntity
  8
0
  6
Continuous
 62
     7
370
    15
100
AcDbLine
 10
59.8264067306
 20
99.3730531901
 30
0.0
 11
64.3664303864
 21
99.3730531901
 31
0.0
  0
LINE
  5
24F
330
1F
100
AcDbEntity
  8
0
  6
Continuous
 62
     7
370
    15
100
AcDbLine
 10
64.3664303864
 20
120.3730531901
 30
0.0
 11
59.8264067306
 21
120.3730531901
 31
0.0
  0
LINE
  5
250
330
1F
100
AcDbEntity
  8
0
  6
Continuous
 62
     7
370
    15
100
AcDbLine
 10
141.3664303864
 20
120.3730531901
 30
0.0
 11
64.3664303864
 21
120.3730531901
 31
0.0
  0
LINE
  5
251
330
1F
100
AcDbEntity
  8
0
  6
Continuous
 62
     7
370
    15
100
AcDbLine
 10
64.3664303864
 20
99.3730531901
 30
0.0
 11
141.3664303864
 21
99.3730531901
 31
0.0
  0
LINE
  5
252
330
1F
100
AcDbEntity
  8
0
  6
Continuous
 62
     7
370
    15
100
AcDbLine
 10
158.3664303864
 20
120.3730531901
 30
0.0
 11
141.3664303864
 21
120.3730531901
 31
0.0
  0
LINE
  5
253
330
1F
100
AcDbEntity
  8
0
  6
Continuous
 62
     7
370
    15
100
AcDbLine
 10
141.3664303864
 20
99.3730531901
 30
0.0
 11
158.3664303864
 21
99.3730531901
 31
0.0
  0
LINE
  5
254
330
1F
100
AcDbEntity
  8
0
  6
Continuous
 62
     7
370
    15
100
AcDbLine
 10
171.8564303864
 20
118.3730531901
 30
0.0
 11
170.8564303864
 21
118.3730531901
 31
0.0
  0
LINE
  5
255
330
1F
100
AcDbEntity
  8
0
  6
Continuous
 62
     7
370
    15
100
AcDbLine
 10
170.8564303864
 20
101.3730531901
 30
0.0
 11
171.8564303864
 21
101.3730531901
 31
0.0
  0
LINE
  5
256
330
1F
100
AcDbEntity
  8
0
  6
Continuous
 62
     7
370
    15
100
AcDbLine
 10
169.3564303864
 20
119.8730531901
 30
0.0
 11
158.3664303864
 21
119.8730531901
 31
0.0
  0
LINE
  5
257
330
1F
100
AcDbEntity
  8
0
  6
Continuous
 62
     7
370
    15
100
AcDbLine
 10
158.3664303864
 20
99.8730531901
 30
0.0
 11
169.3564303864
 21
99.8730531901
 31
0.0
  0
LINE
  5
258
330
1F
100
AcDbEntity
  8
0
  6
Continuous
 62
     7
370
    15
100
AcDbLine
 10
169.3564303864
 20
99.8730531901
 30
0.0
 11
170.8564303864
 21
101.3730531901
 31
0.0
  0
LINE
  5
259
330
1F
100
AcDbEntity
  8
0
  6
Continuous
 62
     7
370
    15
100
AcDbLine
 10
170.8564303864
 20
118.3730531901
 30
0.0
 11
169.3564303864
 21
119.8730531901
 31
0.0
  0
LINE
  5
25A
330
1F
100
AcDbEntity
  8
0
  6
Continuous
 62
     7
370
    15
100
AcDbLine
 10
189.8564303864
 20
119.8730531901
 30
0.0
 11
187.8564303864
 21
119.8730531901
 31
0.0
  0
LINE
  5
25B
330
1F
100
AcDbEntity
  8
0
  6
Continuous
 62
     7
370
    15
100
AcDbLine
 10
187.8564303864
 20
99.8730531901
 30
0.0
 11
189.8564303864
 21
99.8730531901
 31
0.0
  0
LINE
  5
25C
330
1F
100
AcDbEntity
  8
0
  6
Continuous
 62
     7
370
    15
100
AcDbLine
 10
175.8564303864
 20
99.8730531901
 30
0.0
 11
176.8564303864
 21
99.8730531901
 31
0.0
  0
LINE
  5
25D
330
1F
100
AcDbEntity
  8
0
  6
Continuous
 62
     7
370
    15
100
AcDbLine
 10
176.8564303864
 20
119.8730531901
 30
0.0
 11
175.8564303864
 21
119.8730531901
 31
0.0
  0
LINE
  5
25E
330
1F
100
AcDbEntity
  8
0
  6
Continuous
 62
     7
370
    15
100
AcDbLine
 10
175.8564303864
 20
119.8730531901
 30
0.0
 11
171.8564303864
 21
118.3730531901
 31
0.0
  0
LINE
  5
25F
330
1F
100
AcDbEntity
  8
0
  6
Continuous
 62
     7
370
    15
100
AcDbLine
 10
171.8564303864
 20
101.3730531901
 30
0.0
 11
175.8564303864
 21
99.8730531901
 31
0.0
  0
LINE
  5
260
330
1F
100
AcDbEntity
  8
0
  6
Continuous
 62
     7
370
    15
100
AcDbLine
 10
30.2831223864
 20
125.8730531901
 30
0.0
 11
26.2831223864
 21
125.8730531901
 31
0.0
  0
LINE
  5
261
330
1F
100
AcDbEntity
  8
0
  6
Continuous
 62
     7
370
    15
100
AcDbLine
 10
26.2831223864
 20
93.8730531901
 30
0.0
 11
30.2831223864
 21
93.8730531901
 31
0.0
  0
LINE
  5
262
330
1F
100
AcDbEntity
  8
0
  6
Continuous
 62
     7
370
    15
100
AcDbLine
 10
26.2831223864
 20
125.8730531901
 30
0.0
 11
25.7831223864
 21
125.3730531901
 31
0.0
  0
LINE
  5
263
330
1F
100
AcDbEntity
  8
0
  6
Continuous
 62
     7
370
    15
100
AcDbLine
 10
25.7831223864
 20
94.3730531901
 30
0.0
 11
26.2831223864
 21
93.8730531901
 31
0.0
  0
LINE
  5
264
330
1F
100
AcDbEntity
  8
0
  6
Continuous
 62
     7
370
    15
100
AcDbLine
 10
30.2831223864
 20
93.8730531901
 30
0.0
 11
30.7831223864
 21
94.3730531901
 31
0.0
  0
LINE
  5
265
330
1F
100
AcDbEntity
  8
0
  6
Continuous
 62
     7
370
    15
100
AcDbLine
 10
30.7831223864
 20
125.3730531901
 30
0.0
 11
30.2831223864
 21
125.8730531901
 31
0.0
  0
ARC
  5
266
330
1F
100
AcDbEntity
  8
0
  6
Continuous
 62
     7
370
    15
100
AcDbCircle
 10
31.7831223864
 20
121.3730531901
 30
0.0
 40
1.0
100
AcDbArc
 50
180.0
 51
270.0
  0
ARC
  5
267
330
1F
100
AcDbEntity
  8
0
  6
Continuous
 62
     7
370
    15
100
AcDbCircle
 10
31.7831223864
 20
98.3730531901
 30
0.0
 40
1.0
100
AcDbArc
 50
90.0
 51
180.0
  0
LINE
  5
268
330
1F
100
AcDbEntity
  8
0
  6
Continuous
 62
     7
370
    15
100
AcDbLine
 10
46.3779238295
 20
120.3730531901
 30
0.0
 11
31.7831223864
 21
120.3730531901
 31
0.0
  0
LINE
  5
269
330
1F
100
AcDbEntity
  8
0
  6
Continuous
 62
     7
370
    15
100
AcDbLine
 10
57.7831223864
 20
120.3730531901
 30
0.0
 11
50.557959726
 21
120.3730531901
 31
0.0
  0
LINE
  5
26A
330
1F
100
AcDbEntity
  8
0
  6
Continuous
 62
     7
370
    15
100
AcDbLine
 10
40.5585689433
 20
99.3730531901
 30
0.0
 11
57.7831223864
 21
99.3730531901
 31
0.0
  0
LINE
  5
26B
330
1F
100
AcDbEntity
  8
0
  6
Continuous
 62
     7
370
    15
100
AcDbLine
 10
31.7831223864
 20
99.3730531901
 30
0.0
 11
36.3785330467
 21
99.3730531901
 31
0.0
  0
LINE
  5
26C
330
1F
100
AcDbEntity
  8
0
  6
Continuous
 62
     7
370
    15
100
AcDbLine
 10
23.2831223864
 20
124.8730531901
 30
0.0
 11
22.7831223864
 21
124.3730531901
 31
0.0
  0
LINE
  5
26D
330
1F
100
AcDbEntity
  8
0
  6
Continuous
 62
     7
370
    15
100
AcDbLine
 10
22.7831223864
 20
95.3730531901
 30
0.0
 11
23.2831223864
 21
94.8730531901
 31
0.0
  0
LINE
  5
26E
330
1F
100
AcDbEntity
  8
0
  6
Continuous
 62
     7
370
    15
100
AcDbLine
 10
25.7831223864
 20
124.8730531901
 30
0.0
 11
23.2831223864
 21
124.8730531901
 31
0.0
  0
LINE
  5
26F
330
1F
100
AcDbEntity
  8
0
  6
Continuous
 62
     7
370
    15
100
AcDbLine
 10
23.2831223864
 20
94.8730531901
 30
0.0
 11
25.7831223864
 21
94.8730531901
 31
0.0
  0
LINE
  5
270
330
1F
100
AcDbEntity
  8
0
  6
Continuous
 62
     7
370
    15
100
AcDbLine
 10
22.7831223864
 20
122.5730531901
 30
0.0
 11
18.7831223864
 21
122.5730531901
 31
0.0
  0
LINE
  5
271
330
1F
100
AcDbEntity
  8
0
  6
Continuous
 62
     7
370
    15
100
AcDbLine
 10
18.7831223864
 20
97.1730531901
 30
0.0
 11
22.7831223864
 21
97.1730531901
 31
0.0
  0
LINE
  5
272
330
1F
100
AcDbEntity
  8
0
  6
Continuous
 62
     7
370
    15
100
AcDbLine
 10
48.8592212598
 20
118.8730531901
 30
0.0
 11
46.3429054929
 21
118.8730531901
 31
0.0
  0
LINE
  5
273
330
1F
100
AcDbEntity
  8
0
  6
Continuous
 62
     7
370
    15
100
AcDbLine
 10
38.077271513
 20
100.8730531901
 30
0.0
 11
40.5935872798
 21
100.8730531901
 31
0.0
  0
LINE
  5
274
330
1F
100
AcDbEntity
  8
0
  6
Continuous
 62
     7
370
    15
100
AcDbLine
 10
187.8564303864
 20
119.8730531901
 30
0.0
 11
176.8564303864
 21
119.8730531901
 31
0.0
  0
LINE
  5
275
330
1F
100
AcDbEntity
  8
0
  6
Continuous
 62
     7
370
    15
100
AcDbLine
 10
176.8564303864
 20
99.8730531901
 30
0.0
 11
187.8564303864
 21
99.8730531901
 31
0.0
  0
LINE
  5
276
330
1F
100
AcDbEntity
  8
0
  6
Continuous
 62
     7
370
    15
100
AcDbLine
 10
59.8264067306
 20
99.3730531901
 30
0.0
 11
59.8264067306
 21
120.3730531901
 31
0.0
  0
LINE
  5
277
330
1F
100
AcDbEntity
  8
0
  6
Continuous
 62
     7
370
    15
100
AcDbLine
 10
57.7831223864
 20
99.3730531901
 30
0.0
 11
57.7831223864
 21
120.3730531901
 31
0.0
  0
LINE
  5
278
330
1F
100
AcDbEntity
  8
0
  6
Continuous
 62
     7
370
    15
100
AcDbLine
 10
64.3664303864
 20
99.3730531901
 30
0.0
 11
64.3664303864
 21
120.3730531901
 31
0.0
  0
LINE
  5
279
330
1F
100
AcDbEntity
  8
0
  6
Continuous
 62
     7
370
    15
100
AcDbLine
 10
141.3664303864
 20
120.3730531901
 30
0.0
 11
141.3664303864
 21
99.3730531901
 31
0.0
  0
LINE
  5
27A
330
1F
100
AcDbEntity
  8
0
  6
Continuous
 62
     7
370
    15
100
AcDbLine
 10
158.3664303864
 20
120.3730531901
 30
0.0
 11
158.3664303864
 21
99.3730531901
 31
0.0
  0
LINE
  5
27B
330
1F
100
AcDbEntity
  8
0
  6
Continuous
 62
     7
370
    15
100
AcDbLine
 10
171.8564303864
 20
118.3730531901
 30
0.0
 11
171.8564303864
 21
101.3730531901
 31
0.0
  0
LINE
  5
27C
330
1F
100
AcDbEntity
  8
0
  6
Continuous
 62
     7
370
    15
100
AcDbLine
 10
170.8564303864
 20
118.3730531901
 30
0.0
 11
170.8564303864
 21
101.3730531901
 31
0.0
  0
LINE
  5
27D
330
1F
100
AcDbEntity
  8
0
  6
Continuous
 62
     7
370
    15
100
AcDbLine
 10
169.3564303864
 20
99.8730531901
 30
0.0
 11
169.3564303864
 21
119.8730531901
 31
0.0
  0
LINE
  5
27E
330
1F
100
AcDbEntity
  8
0
  6
Continuous
 62
     7
370
    15
100
AcDbLine
 10
189.8564303864
 20
119.8730531901
 30
0.0
 11
189.8564303864
 21
99.8730531901
 31
0.0
  0
LINE
  5
27F
330
1F
100
AcDbEntity
  8
0
  6
Continuous
 62
     7
370
    15
100
AcDbLine
 10
187.8564303864
 20
119.8730531901
 30
0.0
 11
187.8564303864
 21
99.8730531901
 31
0.0
  0
LINE
  5
280
330
1F
100
AcDbEntity
  8
0
  6
Continuous
 62
     7
370
    15
100
AcDbLine
 10
176.8564303864
 20
99.8730531901
 30
0.0
 11
176.8564303864
 21
119.8730531901
 31
0.0
  0
LINE
  5
281
330
1F
100
AcDbEntity
  8
0
  6
Continuous
 62
     7
370
    15
100
AcDbLine
 10
175.8564303864
 20
99.8730531901
 30
0.0
 11
175.8564303864
 21
119.8730531901
 31
0.0
  0
LINE
  5
282
330
1F
100
AcDbEntity
  8
0
  6
Continuous
 62
     7
370
    15
100
AcDbLine
 10
45.4099052725
 20
110.3730531901
 30
0.0
 11
41.5369219263
 21
110.3730531901
 31
0.0
  0
ARC
  5
283
330
1F
100
AcDbEntity
  8
0
  6
Continuous
 62
     7
370
    15
100
AcDbCircle
 10
43.4734135994
 20
109.8730531901
 30
0.0
 40
2.000000000000001
100
AcDbArc
 50
14.4775121859
 51
165.5224878141
  0
LINE
  5
284
330
1F
100
AcDbEntity
  8
0
  6
Continuous
 62
     7
370
    15
100
AcDbLine
 10
45.4099052725
 20
109.3730531901
 30
0.0
 11
41.5369219263
 21
109.3730531901
 31
0.0
  0
ARC
  5
285
330
1F
100
AcDbEntity
  8
0
  6
Continuous
 62
     7
370
    15
100
AcDbCircle
 10
43.4734135994
 20
109.8730531901
 30
0.0
 40
2.000000000000001
100
AcDbArc
 50
194.4775121859
 51
345.5224878141
  0
ARC
  5
286
330
1F
100
AcDbEntity
  8
0
  6
Continuous
 62
     7
370
    15
100
AcDbCircle
 10
43.4734135994
 20
109.8730531901
 30
0.0
 40
2.000000000000001
100
AcDbArc
 50
165.5224878141
 51
194.4775121859
  0
ARC
  5
287
330
1F
100
AcDbEntity
  8
0
  6
Continuous
 62
     7
370
    15
100
AcDbCircle
 10
43.4734135994
 20
109.8730531901
 30
0.0
 40
2.000000000000001
100
AcDbArc
 50
345.5224878141
 51
14.4775121859
  0
LINE
  5
288
330
1F
100
AcDbEntity
  8
0
  6
Continuous
 62
     7
370
    15
100
AcDbLine
 10
30.2831223864
 20
93.8730531901
 30
0.0
 11
30.2831223864
 21
125.8730531901
 31
0.0
  0
LINE
  5
289
330
1F
100
AcDbEntity
  8
0
  6
Continuous
 62
     7
370
    15
100
AcDbLine
 10
26.2831223864
 20
125.8730531901
 30
0.0
 11
26.2831223864
 21
93.8730531901
 31
0.0
  0
SPLINE
  5
28A
330
1F
100
AcDbEntity
  8
0
  6
Continuous
 62
     7
370
    15
100
AcDbSpline
210
0.0
220
0.0
230
1.0
 70
     8
 71
     3
 72
    54
 73
    50
 74
     0
 42
0.00000001
 43
0.00000001
 40
-0.0625000000000006
 40
-0.0625000000000006
 40
0.0
 40
0.0
 40
0.0312500000000003
 40
0.0312500000000003
 40
0.0625000000000006
 40
0.0625000000000006
 40
0.0937500000000009
 40
0.0937500000000009
 40
0.1250000000000012
 40
0.1250000000000012
 40
0.1875000000000009
 40
0.1875000000000009
 40
0.2500000000000007
 40
0.2500000000000007
 40
0.2812500000000006
 40
0.2812500000000006
 40
0.3125000000000004
 40
0.3125000000000004
 40
0.3437500000000003
 40
0.3437500000000003
 40
0.3750000000000001
 40
0.3750000000000001
 40
0.437499999999999
 40
0.437499999999999
 40
0.4687499999999984
 40
0.4687499999999984
 40
0.4999999999999978
 40
0.4999999999999978
 40
0.5624999999999979
 40
0.5624999999999979
 40
0.6249999999999979
 40
0.6249999999999979
 40
0.6562499999999979
 40
0.6562499999999979
 40
0.687499999999998
 40
0.687499999999998
 40
0.7187499999999981
 40
0.7187499999999981
 40
0.7499999999999981
 40
0.7499999999999981
 40
0.8124999999999982
 40
0.8124999999999982
 40
0.8437499999999986
 40
0.8437499999999986
 40
0.8749999999999989
 40
0.8749999999999989
 40
0.9374999999999994
 40
0.9374999999999994
 40
1.0
 40
1.0
 40
1.03125
 40
1.03125
 10
28.0914290950403
 20
108.4230531901385
 30
0.0
 10
28.37896903205477
 20
108.4230531901385
 30
0.0
 10
28.47320413808469
 20
108.4324629588577
 30
0.0
 10
28.65858612182892
 20
108.4693230628858
 30
0.0
 10
28.7506971644555
 20
108.4972242890542
 30
0.0
 10
28.92627035071799
 20
108.5700213278572
 30
0.0
 10
29.0095347038347
 20
108.6145616320284
 30
0.0
 10
29.16711586609352
 20
108.7197833237979
 30
0.0
 10
29.24168816225883
 20
108.7809961064839
 30
0.0
 10
29.44220910631752
 20
108.9815566628134
 30
0.0
 10
29.55022568583179
 20
109.1432484305021
 30
0.0
 10
29.69488807643317
 20
109.4921550475082
 30
0.0
 10
29.7330192822301
 20
109.6830323450095
 30
0.0
 10
29.73317361695856
 20
109.9668810178316
 30
0.0
 10
29.72375225831997
 20
110.0629930942043
 30
0.0
 10
29.68674589218456
 20
110.2489955381587
 30
0.0
 10
29.65936518137952
 20
110.3394052547168
 30
0.0
 10
29.58673745507151
 20
110.5150159862602
 30
0.0
 10
29.54135825509864
 20
110.5998703063918
 30
0.0
 10
29.4364405914623
 20
110.756952358389
 30
0.0
 10
29.37653970301803
 20
110.8301848126631
 30
0.0
 10
29.17357713748175
 20
111.0333289422164
 30
0.0
 10
29.01410087988605
 20
111.1396678112202
 30
0.0
 10
28.75068012461495
 20
111.2488894087688
 30
0.0
 10
28.66030058798001
 20
111.2763415265892
 30
0.0
 10
28.47443607662831
 20
111.3134977822361
 30
0.0
 10
28.37830123236568
 20
111.323018540593
 30
0.0
 10
28.09435271339578
 20
111.3231221993669
 30
0.0
 10
27.90349761746229
 20
111.2851661676344
 30
0.0
 10
27.55440372226056
 20
111.14078625942
 30
0.0
 10
27.39261274458214
 20
111.0328943538602
 30
0.0
 10
27.19190428290612
 20
110.8325727508795
 30
0.0
 10
27.13063424309436
 20
110.7580674623373
 30
0.0
 10
27.02525554236107
 20
110.6005490218287
 30
0.0
 10
26.98065420119093
 20
110.5173346640575
 30
0.0
 10
26.90773606797815
 20
110.3419182733101
 30
0.0
 10
26.87972673689852
 20
110.2497668555076
 30
0.0
 10
26.84269982589613
 20
110.0644046518736
 30
0.0
 10
26.83321548124277
 20
109.9702140558828
 30
0.0
 10
26.83293822250524
 20
109.682929650137
 30
0.0
 10
26.87050496057587
 20
109.4946630953895
 30
0.0
 10
26.97952154908892
 20
109.2310511489578
 30
0.0
 10
27.02399865518207
 20
109.1477415720477
 30
0.0
 10
27.12904189416737
 20
108.9901218613828
 30
0.0
 10
27.19019733300024
 20
108.9154746835788
 30
0.0
 10
27.39063308288436
 20
108.7147225304001
 30
0.0
 10
27.55220056269038
 20
108.6065936006108
 30
0.0
 10
27.90098385010553
 20
108.4616224467619
 30
0.0
 10
28.0914290950403
 20
108.4230531901385
 30
0.0
 10
28.37896903205477
 20
108.4230531901385
 30
0.0
  0
LINE
  5
28B
330
1F
100
AcDbEntity
  8
0
  6
Continuous
 62
     7
370
    15
100
AcDbLine
 10
25.7831223864
 20
94.3730531901
 30
0.0
 11
25.7831223864
 21
125.3730531901
 31
0.0
  0
LINE
  5
28C
330
1F
100
AcDbEntity
  8
0
  6
Continuous
 62
     7
370
    15
100
AcDbLine
 10
30.7831223864
 20
125.3730531901
 30
0.0
 11
30.7831223864
 21
94.3730531901
 31
0.0
  0
SPLINE
  5
28D
330
1F
100
AcDbEntity
  8
0
  6
Continuous
 62
     7
370
    15
100
AcDbSpline
210
0.0
220
0.0
230
1.0
 70
     8
 71
     3
 72
    15
 73
    11
 74
     0
 42
0.00000001
 43
0.00000001
 40
0.0
 40
0.0
 40
0.0
 40
0.0
 40
0.1274668049360041
 40
0.2565862106303625
 40
0.3840530155663665
 40
0.5115198205023704
 40
0.640639226196729
 40
0.768106031132733
 40
0.9062817561974238
 40
1.0
 40
1.0
 40
1.0
 40
1.0
 10
41.58886114481155
 20
110.5570934767899
 30
0.0
 10
41.37060448372085
 20
109.8250018532601
 30
0.0
 10
40.93126147483147
 20
108.3513270748732
 30
0.0
 10
40.24646295871215
 20
106.2117495394603
 30
0.0
 10
39.5888506165869
 20
104.2267219623776
 30
0.0
 10
38.93130171680529
 20
102.4893417082854
 30
0.0
 10
38.24631122860142
 20
101.0752838226428
 30
0.0
 10
37.5710915857094
 20
100.0314443201245
 30
0.0
 10
36.95320708867604
 20
99.43251386739456
 30
0.0
 10
36.54393667679487
 20
99.4332391192021
 30
0.0
 10
36.37853304672542
 20
99.43353222439173
 30
0.0
  0
SPLINE
  5
28E
330
1F
100
AcDbEntity
  8
0
  6
Continuous
 62
     7
370
    15
100
AcDbSpline
210
0.0
220
0.0
230
1.0
 70
     8
 71
     3
 72
    20
 73
    16
 74
     0
 42
0.00000001
 43
0.00000001
 40
0.0
 40
0.0
 40
0.0
 40
0.0
 40
0.1249999999999994
 40
0.1249999999999994
 40
0.2499999999999987
 40
0.2499999999999987
 40
0.3749999999999981
 40
0.3749999999999981
 40
0.4999999999999974
 40
0.4999999999999974
 40
0.7500000000000019
 40
0.7500000000000019
 40
0.875000000000001
 40
0.875000000000001
 40
1.0
 40
1.0
 40
1.0
 40
1.0
 10
39.95476814025256
 20
99.55590030947722
 30
0.0
 10
39.91485489619713
 20
99.58014286078928
 30
0.0
 10
39.86258022708684
 20
99.60560536748724
 30
0.0
 10
39.73405806625018
 20
99.65777460849773
 30
0.0
 10
39.65669599028948
 20
99.68479488620788
 30
0.0
 10
39.48245486319193
 20
99.73679014968216
 30
0.0
 10
39.38583808252934
 20
99.76179450897958
 30
0.0
 10
39.17350707226726
 20
99.80827595111487
 30
0.0
 10
39.05770406671957
 20
99.82964597476607
 30
0.0
 10
38.6968087365307
 20
99.88340922047628
 30
0.0
 10
38.42884957469081
 20
99.9063987297763
 30
0.0
 10
38.02569127029307
 20
99.9138360330644
 30
0.0
 10
37.88854567465946
 20
99.91195050307233
 30
0.0
 10
37.62063938895313
 20
99.89960481337368
 30
0.0
 10
37.48952441722861
 20
99.88925706873509
 30
0.0
 10
37.36131442331472
 20
99.87500141343081
 30
0.0
  0
SPLINE
  5
28F
330
1F
100
AcDbEntity
  8
0
  6
Continuous
 62
     7
370
    15
100
AcDbSpline
210
0.0
220
0.0
230
1.0
 70
     8
 71
     3
 72
    24
 73
    20
 74
     0
 42
0.00000001
 43
0.00000001
 40
0.0
 40
0.0
 40
0.0
 40
0.0
 40
0.1249999999999999
 40
0.1249999999999999
 40
0.2499999999999997
 40
0.2499999999999997
 40
0.3749999999999996
 40
0.3749999999999996
 40
0.4999999999999996
 40
0.4999999999999996
 40
0.6249999999999996
 40
0.6249999999999996
 40
0.6874999999999997
 40
0.6874999999999997
 40
0.7499999999999998
 40
0.7499999999999998
 40
0.8749999999999999
 40
0.8749999999999999
 40
1.0
 40
1.0
 40
1.0
 40
1.0
 10
45.3476316279552
 20
109.1890129034872
 30
0.0
 10
45.13425131789213
 20
108.4625789657835
 30
0.0
 10
44.91000047562071
 20
107.728943019981
 30
0.0
 10
44.4537044612364
 20
106.2967384412185
 30
0.0
 10
44.22176911998189
 20
105.5985428319572
 30
0.0
 10
43.76591744890077
 20
104.2848503374128
 30
0.0
 10
43.54328456930181
 20
103.6706399489767
 30
0.0
 10
43.11530680837578
 20
102.5555159374829
 30
0.0
 10
42.89062412632075
 20
102.0381477831548
 30
0.0
 10
42.43390874732101
 20
101.124651856107
 30
0.0
 10
42.2019865953457
 20
100.7288060560764
 30
0.0
 10
41.86044977220223
 20
100.2460590166442
 30
0.0
 10
41.74766322938767
 20
100.1035034270862
 30
0.0
 10
41.52602961441368
 20
99.85651594583314
 30
0.0
 10
41.41820169171267
 20
99.75234184890076
 30
0.0
 10
41.0963204874608
 20
99.49542549544321
 30
0.0
 10
40.87121779383981
 20
99.39606716741778
 30
0.0
 10
40.41410810617296
 20
99.3571934863282
 30
0.0
 10
40.1822123302315
 20
99.41775500015243
 30
0.0
 10
39.95476814025256
 20
99.55590030947722
 30
0.0
  0
SPLINE
  5
290
330
1F
100
AcDbEntity
  8
0
  6
Continuous
 62
     7
370
    15
100
AcDbSpline
210
0.0
220
0.0
230
1.0
 70
     8
 71
     3
 72
    15
 73
    11
 74
     0
 42
0.00000001
 43
0.00000001
 40
0.0
 40
0.0
 40
0.0
 40
0.0
 40
0.127466804936005
 40
0.2565862106303646
 40
0.3840530155663698
 40
0.5115198205023749
 40
0.6406392261967343
 40
0.7681060311327395
 40
0.9062817561974316
 40
1.0
 40
1.0
 40
1.0
 40
1.0
 10
45.3476316279552
 20
109.1890129034872
 30
0.0
 10
45.56588828904589
 20
109.921104527017
 30
0.0
 10
46.00523129793525
 20
111.3947793054038
 30
0.0
 10
46.69002981405458
 20
113.5343568408168
 30
0.0
 10
47.34764215617982
 20
115.5193844178994
 30
0.0
 10
48.00519105596142
 20
117.2567646719917
 30
0.0
 10
48.69018154416522
 20
118.6708225576342
 30
0.0
 10
49.36540118705723
 20
119.7146620601526
 30
0.0
 10
49.98328568409053
 20
120.3135925128825
 30
0.0
 10
50.39255609597167
 20
120.3128672610749
 30
0.0
 10
50.55795972604111
 20
120.3125741558853
 30
0.0
  0
SPLINE
  5
291
330
1F
100
AcDbEntity
  8
0
  6
Continuous
 62
     7
370
    15
100
AcDbSpline
210
0.0
220
0.0
230
1.0
 70
     8
 71
     3
 72
    20
 73
    16
 74
     0
 42
0.00000001
 43
0.00000001
 40
0.0
 40
0.0
 40
0.0
 40
0.0
 40
0.1249999999999978
 40
0.1249999999999978
 40
0.2499999999999955
 40
0.2499999999999955
 40
0.3749999999999932
 40
0.3749999999999932
 40
0.499999999999991
 40
0.499999999999991
 40
0.7499999999999922
 40
0.7499999999999922
 40
0.8749999999999961
 40
0.8749999999999961
 40
1.0
 40
1.0
 40
1.0
 40
1.0
 10
46.98172463251397
 20
120.1902060707997
 30
0.0
 10
47.0216378765694
 20
120.1659635194876
 30
0.0
 10
47.07391254567968
 20
120.1405010127897
 30
0.0
 10
47.20243470651632
 20
120.0883317717792
 30
0.0
 10
47.27979678247704
 20
120.0613114940691
 30
0.0
 10
47.45403790957457
 20
120.0093162305948
 30
0.0
 10
47.55065469023719
 20
119.9843118712974
 30
0.0
 10
47.76298570049924
 20
119.937830429162
 30
0.0
 10
47.87878870604693
 20
119.9164604055108
 30
0.0
 10
48.2396840362358
 20
119.8626971598006
 30
0.0
 10
48.50764319807571
 20
119.8397076505006
 30
0.0
 10
48.91080150247344
 20
119.8322703472125
 30
0.0
 10
49.04794709810705
 20
119.8341558772046
 30
0.0
 10
49.3158533838134
 20
119.8465015669032
 30
0.0
 10
49.44696835553791
 20
119.8568493115418
 30
0.0
 10
49.57517834945179
 20
119.8711049668461
 30
0.0
  0
SPLINE
  5
292
330
1F
100
AcDbEntity
  8
0
  6
Continuous
 62
     7
370
    15
100
AcDbSpline
210
0.0
220
0.0
230
1.0
 70
     8
 71
     3
 72
    24
 73
    20
 74
     0
 42
0.00000001
 43
0.00000001
 40
0.0
 40
0.0
 40
0.0
 40
0.0
 40
0.125
 40
0.125
 40
0.25
 40
0.25
 40
0.375
 40
0.375
 40
0.5
 40
0.5
 40
0.6249999999999998
 40
0.6249999999999998
 40
0.6874999999999999
 40
0.6874999999999999
 40
0.75
 40
0.75
 40
0.875
 40
0.875
 40
1.0
 40
1.0
 40
1.0
 40
1.0
 10
41.58886114481155
 20
110.5570934767899
 30
0.0
 10
41.8022414548746
 20
111.2835274144936
 30
0.0
 10
42.02649229714604
 20
112.017163360296
 30
0.0
 10
42.48278831153032
 20
113.4493679390586
 30
0.0
 10
42.71472365278483
 20
114.1475635483199
 30
0.0
 10
43.17057532386596
 20
115.4612560428643
 30
0.0
 10
43.39320820346492
 20
116.0754664313003
 30
0.0
 10
43.82118596439093
 20
117.1905904427941
 30
0.0
 10
44.04586864644592
 20
117.7079585971222
 30
0.0
 10
44.50258402544566
 20
118.62145452417
 30
0.0
 10
44.73450617742096
 20
119.0173003242005
 30
0.0
 10
45.0760430005644
 20
119.5000473636328
 30
0.0
 10
45.18882954337897
 20
119.6426029531908
 30
0.0
 10
45.41046315835292
 20
119.8895904344438
 30
0.0
 10
45.51829108105395
 20
119.9937645313762
 30
0.0
 10
45.84017228530579
 20
120.2506808848337
 30
0.0
 10
46.06527497892675
 20
120.3500392128592
 30
0.0
 10
46.52238466659359
 20
120.3889128939487
 30
0.0
 10
46.75428044253505
 20
120.3283513801245
 30
0.0
 10
46.98172463251398
 20
120.1902060707997
 30
0.0
  0
SPLINE
  5
293
330
1F
100
AcDbEntity
  8
0
  6
Continuous
 62
     7
370
    15
100
AcDbSpline
210
0.0
220
0.0
230
1.0
 70
     8
 71
     3
 72
    15
 73
    11
 74
     0
 42
0.00000001
 43
0.00000001
 40
0.0
 40
0.0
 40
0.0
 40
0.0
 40
0.1395057702140007
 40
0.2809056550468488
 40
0.4204114252608498
 40
0.5599171954748506
 40
0.7013170803076981
 40
0.8408228505216992
 40
0.9793777298215133
 40
1.0
 40
1.0
 40
1.0
 40
1.0
 10
41.58886114481156
 20
110.5570934767899
 30
0.0
 10
41.80716264202028
 20
111.178873431805
 30
0.0
 10
42.24672958593278
 20
112.4308754478549
 30
0.0
 10
42.93099447092992
 20
114.1762451248918
 30
0.0
 10
43.58885247368993
 20
115.7444175994628
 30
0.0
 10
44.24676273864077
 20
117.0522256355992
 30
0.0
 10
44.93086941790423
 20
118.0514382389724
 30
0.0
 10
45.58782278967043
 20
118.6583817458404
 30
0.0
 10
46.05369165340256
 20
118.9174168816839
 30
0.0
 10
46.30975066984725
 20
118.8562749382338
 30
0.0
 10
46.34292451569175
 20
118.8483536651039
 30
0.0
  0
SPLINE
  5
294
330
1F
100
AcDbEntity
  8
0
  6
Continuous
 62
     7
370
    15
100
AcDbSpline
210
0.0
220
0.0
230
1.0
 70
     8
 71
     3
 72
    15
 73
    11
 74
     0
 42
0.00000001
 43
0.00000001
 40
0.0
 40
0.0
 40
0.0
 40
0.0
 40
0.1395057702140001
 40
0.280905655046847
 40
0.420411425260847
 40
0.5599171954748473
 40
0.7013170803076944
 40
0.8408228505216943
 40
0.9793777298215082
 40
0.9999999999999999
 40
0.9999999999999999
 40
0.9999999999999999
 40
0.9999999999999999
 10
45.34763162795519
 20
109.1890129034872
 30
0.0
 10
45.12933013074645
 20
108.5672329484721
 30
0.0
 10
44.68976318683394
 20
107.3152309324222
 30
0.0
 10
44.0054983018368
 20
105.5698612553853
 30
0.0
 10
43.34764029907682
 20
104.0016887808142
 30
0.0
 10
42.6897300341259
 20
102.6938807446778
 30
0.0
 10
42.00562335486241
 20
101.6946681413046
 30
0.0
 10
41.34866998309619
 20
101.0877246344366
 30
0.0
 10
40.88280111936399
 20
100.828689498593
 30
0.0
 10
40.62674210291931
 20
100.8898314420431
 30
0.0
 10
40.5935682570748
 20
100.8977527151731
 30
0.0
  0
LINE
  5
295
330
1F
100
AcDbEntity
  8
0
  6
Continuous
 62
     7
370
    15
100
AcDbLine
 10
23.2831223864
 20
124.8730531901
 30
0.0
 11
23.2831223864
 21
94.8730531901
 31
0.0
  0
LINE
  5
296
330
1F
100
AcDbEntity
  8
0
  6
Continuous
 62
     7
370
    15
100
AcDbLine
 10
22.7831223864
 20
95.3730531901
 30
0.0
 11
22.7831223864
 21
124.3730531901
 31
0.0
  0
LINE
  5
297
330
1F
100
AcDbEntity
  8
0
  6
Continuous
 62
     7
370
    15
100
AcDbLine
 10
18.7831223864
 20
122.5730531901
 30
0.0
 11
18.7831223864
 21
97.1730531901
 31
0.0
  0
LINE
  5
298
330
1F
100
AcDbEntity
  8
0
  6
Continuous
 62
     7
370
    15
100
AcDbLine
 10
40.7710259303
 20
107.8730531901
 30
0.0
 11
44.8828148201
 21
107.8730531901
 31
0.0
  0
LINE
  5
299
330
1F
100
AcDbEntity
  8
0
  6
Continuous
 62
     7
370
    15
100
AcDbLine
 10
42.0592888751
 20
111.8730531901
 30
0.0
 11
46.1654668424
 21
111.8730531901
 31
0.0
  0
DIMENSION
  5
29A
330
1F
100
AcDbEntity
  8
RIQUADRO
100
AcDbDimension
  2
*D22
 10
22.7831223864
 20
71.8730531901
 30
0.0
 11
112.2289793738
 21
71.8730531901
 31
0.0
 70
   160
 71
     2
 42
-1.0
  3
SLDDIMSTYLE1
100
AcDbAlignedDimension
 13
189.8564303864
 23
99.8730531901
 33
0.0
 14
22.7831223864
 24
95.3730531901
 34
0.0
 50
0.0
100
AcDbRotatedDimension
  0
DIMENSION
  5
2A4
330
1F
100
AcDbEntity
  8
RIQUADRO
100
AcDbDimension
  2
*D23
 10
18.7831223864
 20
65.8730531901
 30
0.0
 11
112.2289793738
 21
65.8730531901
 31
0.0
 70
   160
 71
     2
 42
-1.0
  3
SLDDIMSTYLE1
100
AcDbAlignedDimension
 13
189.8564303864
 23
99.8730531901
 33
0.0
 14
18.7831223864
 24
97.1730531901
 34
0.0
 50
0.0
100
AcDbRotatedDimension
  0
DIMENSION
  5
2AE
330
1F
100
AcDbEntity
  8
RIQUADRO
100
AcDbDimension
  2
*D24
 10
20.8380398183
 20
97.1730531901
 30
0.0
 11
20.8380398183
 21
135.8730531901
 31
0.0
 70
   160
  1
C-Mount
 71
     2
 42
-1.0
  3
SLDDIMSTYLE1
100
AcDbAlignedDimension
 13
18.7831223864
 23
122.5730531901
 33
0.0
 14
18.7831223864
 24
97.1730531901
 34
0.0
 50
90.0
100
AcDbRotatedDimension
  0
DIMENSION
  5
2B9
330
1F
100
AcDbEntity
  8
RIQUADRO
100
AcDbDimension
  2
*D25
 10
202.6640415719
 20
99.8730531901
 30
0.0
 11
202.6640415719
 21
108.4801633772
 31
0.0
 70
   160
  1
%%c<>
 71
     2
 42
-1.0
  3
SLDDIMSTYLE3
100
AcDbAlignedDimension
 13
187.8564303864
 23
119.8730531901
 33
0.0
 14
187.8564303864
 24
99.8730531901
 34
0.0
 50
90.0
100
AcDbRotatedDimension
  0
DIMENSION
  5
2C7
330
1F
100
AcDbEntity
  8
RIQUADRO
100
AcDbDimension
  2
*D26
 10
134.4449427261
 20
99.3730531901
 30
0.0
 11
134.4449427261
 21
85.8045928795
 31
0.0
 70
   160
  1
%%c<>
 71
     2
 42
-1.0
  3
SLDDIMSTYLE1
100
AcDbAlignedDimension
 13
141.3664303864
 23
120.3730531901
 33
0.0
 14
141.3664303864
 24
99.3730531901
 34
0.0
 50
90.0
100
AcDbRotatedDimension
  0
INSERT
  5
2DC
330
1F
100
AcDbEntity
  8
RIQUADRO
100
AcDbBlockReference
  2
SW_NOTE_13
 10
41.1190497945
 20
89.2913242901
 30
0.0
  0
LEADER
  5
2E6
330
1F
100
AcDbEntity
  8
RIQUADRO
100
AcDbLeader
  3
SLDDIMSTYLE4
 76
     2
 10
28.4021578799
 20
109.967122994
 30
0.0
 10
41.1190497945
 20
89.2913242901
 30
0.0
  0
INSERT
  5
2F1
330
1F
100
AcDbEntity
  8
RIQUADRO
100
AcDbBlockReference
  2
SW_NOTE_14
 10
63.0664786327
 20
129.2928500495
 30
0.0
  0
LEADER
  5
2F2
330
1F
100
AcDbEntity
  8
RIQUADRO
100
AcDbLeader
  3
SLDDIMSTYLE4
 76
     2
 10
54.0642326433
 20
115.9683903854
 30
0.0
 10
63.0664786327
 20
129.2928500495
 30
0.0
  0
LINE
  5
2F3
330
1F
100
AcDbEntity
  8
RIQUADRO
100
AcDbLine
 10
402.1237006993
 20
241.9447292391
 30
0.0
 11
238.8313667412
 21
241.9447292391
 31
0.0
  0
LINE
  5
2F4
330
1F
100
AcDbEntity
  8
RIQUADRO
100
AcDbLine
 10
402.1237006993
 20
241.9447292391
 30
0.0
 11
402.1237006993
 21
112.3992299946
 31
0.0
  0
LINE
  5
2F5
330
1F
100
AcDbEntity
  8
RIQUADRO
100
AcDbLine
 10
402.1237006993
 20
112.3992299946
 30
0.0
 11
238.8313667412
 21
112.3992299946
 31
0.0
  0
LINE
  5
2F6
330
1F
100
AcDbEntity
  8
RIQUADRO
100
AcDbLine
 10
238.8313667412
 20
241.9447292391
 30
0.0
 11
238.8313667412
 21
112.3992299946
 31
0.0
  0
ENDSEC
  0
SECTION
  2
OBJECTS
  0
DICTIONARY
  5
C
330
0
100
AcDbDictionary
281
     1
  3
ACAD_GROUP
350
D
  3
ACAD_IMAGE_DICT
350
47
  3
ACAD_LAYOUT
350
1A
  3
ACAD_MLEADERSTYLE
350
2F9
  3
ACAD_MLINESTYLE
350
17
  3
ACAD_PLOTSETTINGS
350
19
  3
ACAD_PLOTSTYLENAME
350
E
  3
ACAD_SCALELIST
350
B5
  3
ACAD_VISUALSTYLE
350
2A
  3
AcDbVariableDictionary
350
2F7
  0
IMAGEDEF_REACTOR
  5
4A
330
49
100
AcDbRasterImageDefReactor
 90
        2
330
49
  0
DICTIONARY
  5
D
102
{ACAD_REACTORS
330
C
102
}
330
C
100
AcDbDictionary
281
     1
  0
DICTIONARY
  5
47
102
{ACAD_REACTORS
330
C
102
}
330
C
100
AcDbDictionary
281
     1
  3
H:\04 PRODUCTS\OE PRODUCTS\PCBP - Boroscopic Probe\3D\tavole\dxf140.bmp
350
48
  0
DICTIONARY
  5
1A
102
{ACAD_REACTORS
330
C
102
}
330
C
100
AcDbDictionary
281
     1
  3
Layout1
350
1E
  3
Layout2
350
26
  3
Model
350
22
  0
DICTIONARY
  5
2F9
102
{ACAD_REACTORS
330
C
102
}
330
C
100
AcDbDictionary
281
     1
  0
DICTIONARY
  5
17
102
{ACAD_REACTORS
330
C
102
}
330
C
100
AcDbDictionary
281
     1
  3
Standard
350
18
  0
DICTIONARY
  5
19
102
{ACAD_REACTORS
330
C
102
}
330
C
100
AcDbDictionary
281
     1
  0
ACDBDICTIONARYWDFLT
  5
E
102
{ACAD_REACTORS
330
C
102
}
330
C
100
AcDbDictionary
281
     1
  3
Normal
350
F
100
AcDbDictionaryWithDefault
340
F
  0
DICTIONARY
  5
B5
102
{ACAD_REACTORS
330
C
102
}
330
C
100
AcDbDictionary
281
     1
  3
A0
350
B6
  3
A1
350
B7
  3
A2
350
B8
  3
A3
350
B9
  3
A4
350
BA
  3
A5
350
BB
  3
A6
350
BC
  3
A7
350
BD
  3
A8
350
BE
  3
A9
350
BF
  3
B0
350
C0
  3
B1
350
C1
  3
B2
350
C2
  3
B3
350
C3
  3
B4
350
C4
  3
B5
350
C5
  3
B6
350
C6
  3
B7
350
C7
  3
B8
350
C8
  3
B9
350
C9
  3
C0
350
CA
  3
C1
350
CB
  3
C2
350
CC
  3
C3
350
CD
  3
C4
350
CE
  3
C5
350
CF
  3
C6
350
D0
  3
C7
350
D1
  3
C8
350
D2
  3
C9
350
D3
  3
D0
350
D4
  3
D1
350
D5
  3
D2
350
D6
  0
DICTIONARY
  5
2A
102
{ACAD_REACTORS
330
C
102
}
330
C
100
AcDbDictionary
281
     1
  3
2dWireframe
350
2F
  3
3D Hidden
350
31
  3
3dWireframe
350
30
  3
Basic
350
32
  3
Brighten
350
36
  3
ColorChange
350
3A
  3
Conceptual
350
34
  3
Dim
350
35
  3
Facepattern
350
39
  3
Flat
350
2B
  3
FlatWithEdges
350
2C
  3
Gouraud
350
2D
  3
GouraudWithEdges
350
2E
  3
Linepattern
350
38
  3
Realistic
350
33
  3
Thicken
350
37
  0
DICTIONARY
  5
2F7
102
{ACAD_REACTORS
330
C
102
}
330
C
100
AcDbDictionary
281
     1
  3
CANNOSCALE
350
2FC
  3
DIMASSOC
350
2FD
  3
HIDETEXT
350
2FE
  3
PSOLHEIGHT
350
2FB
  3
PSOLWIDTH
350
2FA
  0
IMAGEDEF
  5
48
102
{ACAD_REACTORS
330
47
330
4A
102
}
330
47
100
AcDbRasterImageDef
 90
        0
  1
H:\04 PRODUCTS\OE PRODUCTS\PCBP - Boroscopic Probe\3D\tavole\dxf140.bmp
 10
1658.0
 20
843.0
 11
0.2645502645502645
 21
0.2645502645502645
280
     1
281
     3
  0
LAYOUT
  5
1E
102
{ACAD_REACTORS
330
1A
102
}
330
1A
100
AcDbPlotSettings
  1

  2
none_device
  4

  6

 40
0.0
 41
0.0
 42
0.0
 43
0.0
 44
0.0
 45
0.0
 46
0.0
 47
0.0
 48
0.0
 49
0.0
140
0.0
141
0.0
142
1.0
143
1.0
 70
   688
 72
     0
 73
     0
 74
     5
  7

 75
    16
147
1.0
148
0.0
149
0.0
100
AcDbLayout
  1
Layout1
 70
     1
 71
     1
 10
0.0
 20
0.0
 11
420.0
 21
297.0
 12
0.0
 22
0.0
 32
0.0
 14
1.0000000000E+20
 24
1.0000000000E+20
 34
1.0000000000E+20
 15
-1.0000000000E+20
 25
-1.0000000000E+20
 35
-1.0000000000E+20
146
0.0
 13
0.0
 23
0.0
 33
0.0
 16
1.0
 26
0.0
 36
0.0
 17
0.0
 27
1.0
 37
0.0
 76
     0
330
1B
  0
LAYOUT
  5
26
102
{ACAD_REACTORS
330
1A
102
}
330
1A
100
AcDbPlotSettings
  1

  2
none_device
  4

  6

 40
0.0
 41
0.0
 42
0.0
 43
0.0
 44
0.0
 45
0.0
 46
0.0
 47
0.0
 48
0.0
 49
0.0
140
0.0
141
0.0
142
1.0
143
1.0
 70
   688
 72
     0
 73
     0
 74
     5
  7

 75
    16
147
1.0
148
0.0
149
0.0
100
AcDbLayout
  1
Layout2
 70
     1
 71
     2
 10
0.0
 20
0.0
 11
0.0
 21
0.0
 12
0.0
 22
0.0
 32
0.0
 14
0.0
 24
0.0
 34
0.0
 15
0.0
 25
0.0
 35
0.0
146
0.0
 13
0.0
 23
0.0
 33
0.0
 16
1.0
 26
0.0
 36
0.0
 17
0.0
 27
1.0
 37
0.0
 76
     0
330
23
  0
LAYOUT
  5
22
102
{ACAD_REACTORS
330
1A
102
}
330
1A
100
AcDbPlotSettings
  1

  2
none_device
  4

  6

 40
0.0
 41
0.0
 42
0.0
 43
0.0
 44
0.0
 45
0.0
 46
0.0
 47
0.0
 48
0.0
 49
0.0
140
0.0
141
0.0
142
1.0
143
1.0
 70
  1712
 72
     0
 73
     0
 74
     0
  7

 75
     0
147
1.0
148
0.0
149
0.0
100
AcDbLayout
  1
Model
 70
     1
 71
     0
 10
0.0
 20
0.0
 11
420.0
 21
297.0
 12
0.0
 22
0.0
 32
0.0
 14
0.0
 24
0.0
 34
0.0
 15
420.0
 25
297.0
 35
0.0
146
0.0
 13
0.0
 23
0.0
 33
0.0
 16
1.0
 26
0.0
 36
0.0
 17
0.0
 27
1.0
 37
0.0
 76
     0
330
1F
331
29
  0
MLINESTYLE
  5
18
102
{ACAD_REACTORS
330
17
102
}
330
17
100
AcDbMlineStyle
  2
Standard
 70
     0
  3

 62
   256
 51
90.0
 52
90.0
 71
     2
 49
0.5
 62
   256
  6
BYLAYER
 49
-0.5
 62
   256
  6
BYLAYER
  0
ACDBPLACEHOLDER
  5
F
102
{ACAD_REACTORS
330
E
102
}
330
E
  0
SCALE
  5
B6
102
{ACAD_REACTORS
330
B5
102
}
330
B5
100
AcDbScale
 70
     0
300
1:1
140
1.0
141
1.0
290
     1
  0
SCALE
  5
B7
102
{ACAD_REACTORS
330
B5
102
}
330
B5
100
AcDbScale
 70
     0
300
1:2
140
1.0
141
2.0
290
     0
  0
SCALE
  5
B8
102
{ACAD_REACTORS
330
B5
102
}
330
B5
100
AcDbScale
 70
     0
300
1:4
140
1.0
141
4.0
290
     0
  0
SCALE
  5
B9
102
{ACAD_REACTORS
330
B5
102
}
330
B5
100
AcDbScale
 70
     0
300
1:5
140
1.0
141
5.0
290
     0
  0
SCALE
  5
BA
102
{ACAD_REACTORS
330
B5
102
}
330
B5
100
AcDbScale
 70
     0
300
1:8
140
1.0
141
8.0
290
     0
  0
SCALE
  5
BB
102
{ACAD_REACTORS
330
B5
102
}
330
B5
100
AcDbScale
 70
     0
300
1:10
140
1.0
141
10.0
290
     0
  0
SCALE
  5
BC
102
{ACAD_REACTORS
330
B5
102
}
330
B5
100
AcDbScale
 70
     0
300
1:16
140
1.0
141
16.0
290
     0
  0
SCALE
  5
BD
102
{ACAD_REACTORS
330
B5
102
}
330
B5
100
AcDbScale
 70
     0
300
1:20
140
1.0
141
20.0
290
     0
  0
SCALE
  5
BE
102
{ACAD_REACTORS
330
B5
102
}
330
B5
100
AcDbScale
 70
     0
300
1:30
140
1.0
141
30.0
290
     0
  0
SCALE
  5
BF
102
{ACAD_REACTORS
330
B5
102
}
330
B5
100
AcDbScale
 70
     0
300
1:40
140
1.0
141
40.0
290
     0
  0
SCALE
  5
C0
102
{ACAD_REACTORS
330
B5
102
}
330
B5
100
AcDbScale
 70
     0
300
1:50
140
1.0
141
50.0
290
     0
  0
SCALE
  5
C1
102
{ACAD_REACTORS
330
B5
102
}
330
B5
100
AcDbScale
 70
     0
300
1:100
140
1.0
141
100.0
290
     0
  0
SCALE
  5
C2
102
{ACAD_REACTORS
330
B5
102
}
330
B5
100
AcDbScale
 70
     0
300
2:1
140
2.0
141
1.0
290
     0
  0
SCALE
  5
C3
102
{ACAD_REACTORS
330
B5
102
}
330
B5
100
AcDbScale
 70
     0
300
4:1
140
4.0
141
1.0
290
     0
  0
SCALE
  5
C4
102
{ACAD_REACTORS
330
B5
102
}
330
B5
100
AcDbScale
 70
     0
300
8:1
140
8.0
141
1.0
290
     0
  0
SCALE
  5
C5
102
{ACAD_REACTORS
330
B5
102
}
330
B5
100
AcDbScale
 70
     0
300
10:1
140
10.0
141
1.0
290
     0
  0
SCALE
  5
C6
102
{ACAD_REACTORS
330
B5
102
}
330
B5
100
AcDbScale
 70
     0
300
100:1
140
100.0
141
1.0
290
     0
  0
SCALE
  5
C7
102
{ACAD_REACTORS
330
B5
102
}
330
B5
100
AcDbScale
 70
     0
300
1/128" = 1'-0"
140
0.0078125
141
12.0
290
     0
  0
SCALE
  5
C8
102
{ACAD_REACTORS
330
B5
102
}
330
B5
100
AcDbScale
 70
     0
300
1/64" = 1'-0"
140
0.015625
141
12.0
290
     0
  0
SCALE
  5
C9
102
{ACAD_REACTORS
330
B5
102
}
330
B5
100
AcDbScale
 70
     0
300
1/32" = 1'-0"
140
0.03125
141
12.0
290
     0
  0
SCALE
  5
CA
102
{ACAD_REACTORS
330
B5
102
}
330
B5
100
AcDbScale
 70
     0
300
1/16" = 1'-0"
140
0.0625
141
12.0
290
     0
  0
SCALE
  5
CB
102
{ACAD_REACTORS
330
B5
102
}
330
B5
100
AcDbScale
 70
     0
300
3/32" = 1'-0"
140
0.09375
141
12.0
290
     0
  0
SCALE
  5
CC
102
{ACAD_REACTORS
330
B5
102
}
330
B5
100
AcDbScale
 70
     0
300
1/8" = 1'-0"
140
0.125
141
12.0
290
     0
  0
SCALE
  5
CD
102
{ACAD_REACTORS
330
B5
102
}
330
B5
100
AcDbScale
 70
     0
300
3/16" = 1'-0"
140
0.1875
141
12.0
290
     0
  0
SCALE
  5
CE
102
{ACAD_REACTORS
330
B5
102
}
330
B5
100
AcDbScale
 70
     0
300
1/4" = 1'-0"
140
0.25
141
12.0
290
     0
  0
SCALE
  5
CF
102
{ACAD_REACTORS
330
B5
102
}
330
B5
100
AcDbScale
 70
     0
300
3/8" = 1'-0"
140
0.375
141
12.0
290
     0
  0
SCALE
  5
D0
102
{ACAD_REACTORS
330
B5
102
}
330
B5
100
AcDbScale
 70
     0
300
1/2" = 1'-0"
140
0.5
141
12.0
290
     0
  0
SCALE
  5
D1
102
{ACAD_REACTORS
330
B5
102
}
330
B5
100
AcDbScale
 70
     0
300
3/4" = 1'-0"
140
0.75
141
12.0
290
     0
  0
SCALE
  5
D2
102
{ACAD_REACTORS
330
B5
102
}
330
B5
100
AcDbScale
 70
     0
300
1" = 1'-0"
140
1.0
141
12.0
290
     0
  0
SCALE
  5
D3
102
{ACAD_REACTORS
330
B5
102
}
330
B5
100
AcDbScale
 70
     0
300
1-1/2" = 1'-0"
140
1.5
141
12.0
290
     0
  0
SCALE
  5
D4
102
{ACAD_REACTORS
330
B5
102
}
330
B5
100
AcDbScale
 70
     0
300
3" = 1'-0"
140
3.0
141
12.0
290
     0
  0
SCALE
  5
D5
102
{ACAD_REACTORS
330
B5
102
}
330
B5
100
AcDbScale
 70
     0
300
6" = 1'-0"
140
6.0
141
12.0
290
     0
  0
SCALE
  5
D6
102
{ACAD_REACTORS
330
B5
102
}
330
B5
100
AcDbScale
 70
     0
300
1'-0" = 1'-0"
140
12.0
141
12.0
290
     0
  0
VISUALSTYLE
  5
2F
102
{ACAD_REACTORS
330
2A
102
}
330
2A
100
AcDbVisualStyle
  2
2dWireframe
 70
     4
 71
     0
 72
     2
 73
     0
 90
        0
 40
-0.6
 41
-30.0
 62
     5
 63
     7
 74
     1
 91
        4
 64
     7
 65
   257
 75
     1
175
     1
 42
1.0
 92
        0
 66
   257
 43
1.0
 76
     1
 77
     6
 78
     2
 67
     7
 79
     5
170
     0
171
     0
290
     0
174
     0
 93
        1
 44
0.0
173
     0
291
     0
 45
0.0
1001
ACAD
1000
AcDbSavedByObjectVersion
1070
     0
  0
VISUALSTYLE
  5
31
102
{ACAD_REACTORS
330
2A
102
}
330
2A
100
AcDbVisualStyle
  2
3D Hidden
 70
     6
 71
     1
 72
     2
 73
     2
 90
        0
 40
-0.6
 41
-30.0
 62
     5
 63
     7
 74
     2
 91
        2
 64
     7
 65
   257
 75
     2
175
     1
 42
40.0
 92
        0
 66
   257
 43
1.0
 76
     1
 77
     6
 78
     2
 67
     7
 79
     3
170
     0
171
     0
290
     0
174
     0
 93
        1
 44
0.0
173
     0
291
     0
 45
0.0
1001
ACAD
1000
AcDbSavedByObjectVersion
1070
     0
  0
VISUALSTYLE
  5
30
102
{ACAD_REACTORS
330
2A
102
}
330
2A
100
AcDbVisualStyle
  2
3dWireframe
 70
     5
 71
     0
 72
     2
 73
     0
 90
        0
 40
-0.6
 41
-30.0
 62
     5
 63
     7
 74
     1
 91
        4
 64
     7
 65
   257
 75
     1
175
     1
 42
1.0
 92
        0
 66
   257
 43
1.0
 76
     1
 77
     6
 78
     2
 67
     7
 79
     5
170
     0
171
     0
290
     0
174
     0
 93
        1
 44
0.0
173
     0
291
     0
 45
0.0
1001
ACAD
1000
AcDbSavedByObjectVersion
1070
     0
  0
VISUALSTYLE
  5
32
102
{ACAD_REACTORS
330
2A
102
}
330
2A
100
AcDbVisualStyle
  2
Basic
 70
     7
 71
     1
 72
     0
 73
     1
 90
        0
 40
-0.6
 41
-30.0
 62
     5
 63
     7
 74
     0
 91
        4
 64
     7
 65
   257
 75
     1
175
     1
 42
1.0
 92
        8
 66
     7
 43
1.0
 76
     1
 77
     6
 78
     2
 67
     7
 79
     5
170
     0
171
     0
290
     0
174
     0
 93
        1
 44
0.0
173
     0
291
     1
 45
0.0
1001
ACAD
1000
AcDbSavedByObjectVersion
1070
     0
  0
VISUALSTYLE
  5
36
102
{ACAD_REACTORS
330
2A
102
}
330
2A
100
AcDbVisualStyle
  2
Brighten
 70
    12
 71
     2
 72
     2
 73
     0
 90
        0
 40
-0.6
 41
-30.0
 62
     5
 63
     7
 74
     1
 91
        4
 64
     7
 65
   257
 75
     1
175
     1
 42
1.0
 92
        8
 66
     7
 43
1.0
 76
     1
 77
     6
 78
     2
 67
     7
 79
     5
170
     0
171
     0
290
     0
174
     0
 93
        1
 44
50.0
173
     0
291
     1
 45
0.0
1001
ACAD
1000
AcDbSavedByObjectVersion
1070
     0
  0
VISUALSTYLE
  5
3A
102
{ACAD_REACTORS
330
2A
102
}
330
2A
100
AcDbVisualStyle
  2
ColorChange
 70
    16
 71
     2
 72
     2
 73
     3
 90
        0
 40
-0.6
 41
-30.0
 62
     5
 63
     8
 74
     1
 91
        4
 64
     7
 65
   257
 75
     1
175
     1
 42
1.0
 92
        8
 66
     8
 43
1.0
 76
     1
 77
     6
 78
     2
 67
     7
 79
     5
170
     0
171
     0
290
     0
174
     0
 93
        1
 44
0.0
173
     0
291
     1
 45
0.0
1001
ACAD
1000
AcDbSavedByObjectVersion
1070
     0
  0
VISUALSTYLE
  5
34
102
{ACAD_REACTORS
330
2A
102
}
330
2A
100
AcDbVisualStyle
  2
Conceptual
 70
     9
 71
     3
 72
     2
 73
     0
 90
        0
 40
-0.6
 41
-30.0
 62
     5
 63
     7
 74
     2
 91
        2
 64
     7
 65
   257
 75
     1
175
     1
 42
40.0
 92
        8
 66
     7
 43
1.0
 76
     1
 77
     6
 78
     2
 67
     7
 79
     3
170
     0
171
     0
290
     0
174
     0
 93
        1
 44
0.0
173
     0
291
     0
 45
0.0
1001
ACAD
1000
AcDbSavedByObjectVersion
1070
     0
  0
VISUALSTYLE
  5
35
102
{ACAD_REACTORS
330
2A
102
}
330
2A
100
AcDbVisualStyle
  2
Dim
 70
    11
 71
     2
 72
     2
 73
     0
 90
        0
 40
-0.6
 41
-30.0
 62
     5
 63
     7
 74
     1
 91
        4
 64
     7
 65
   257
 75
     1
175
     1
 42
1.0
 92
        8
 66
     7
 43
1.0
 76
     1
 77
     6
 78
     2
 67
     7
 79
     5
170
     0
171
     0
290
     0
174
     0
 93
        1
 44
-50.0
173
     0
291
     1
 45
0.0
1001
ACAD
1000
AcDbSavedByObjectVersion
1070
     0
  0
VISUALSTYLE
  5
39
102
{ACAD_REACTORS
330
2A
102
}
330
2A
100
AcDbVisualStyle
  2
Facepattern
 70
    15
 71
     2
 72
     2
 73
     0
 90
        0
 40
-0.6
 41
-30.0
 62
     5
 63
     7
 74
     1
 91
        4
 64
     7
 65
   257
 75
     1
175
     1
 42
1.0
 92
        8
 66
     7
 43
1.0
 76
     1
 77
     6
 78
     2
 67
     7
 79
     5
170
     0
171
     0
290
     0
174
     0
 93
        1
 44
0.0
173
     0
291
     1
 45
0.0
1001
ACAD
1000
AcDbSavedByObjectVersion
1070
     0
  0
VISUALSTYLE
  5
2B
102
{ACAD_REACTORS
330
2A
102
}
330
2A
100
AcDbVisualStyle
  2
Flat
 70
     0
 71
     2
 72
     1
 73
     1
 90
        2
 40
-0.6
 41
30.0
 62
     5
 63
     7
 74
     0
 91
        4
 64
     7
 65
   257
 75
     1
175
     1
 42
1.0
 92
        8
 66
     7
 43
1.0
 76
     1
 77
     6
 78
     2
 67
     7
 79
     5
170
     0
171
     0
290
     0
174
     0
 93
       13
 44
0.0
173
     0
291
     1
 45
0.0
1001
ACAD
1000
AcDbSavedByObjectVersion
1070
     0
  0
VISUALSTYLE
  5
2C
102
{ACAD_REACTORS
330
2A
102
}
330
2A
100
AcDbVisualStyle
  2
FlatWithEdges
 70
     1
 71
     2
 72
     1
 73
     1
 90
        2
 40
-0.6
 41
30.0
 62
     5
 63
     7
 74
     1
 91
        4
 64
     7
 65
   257
 75
     1
175
     1
 42
1.0
 92
        0
 66
   257
 43
1.0
 76
     1
 77
     6
 78
     2
 67
     7
 79
     5
170
     0
171
     0
290
     0
174
     0
 93
       13
 44
0.0
173
     0
291
     1
 45
0.0
1001
ACAD
1000
AcDbSavedByObjectVersion
1070
     0
  0
VISUALSTYLE
  5
2D
102
{ACAD_REACTORS
330
2A
102
}
330
2A
100
AcDbVisualStyle
  2
Gouraud
 70
     2
 71
     2
 72
     2
 73
     1
 90
        2
 40
-0.6
 41
30.0
 62
     5
 63
     7
 74
     0
 91
        4
 64
     7
 65
   257
 75
     1
175
     1
 42
1.0
 92
        0
 66
     7
 43
1.0
 76
     1
 77
     6
 78
     2
 67
     7
 79
     5
170
     0
171
     0
290
     0
174
     0
 93
       13
 44
0.0
173
     0
291
     1
 45
0.0
1001
ACAD
1000
AcDbSavedByObjectVersion
1070
     0
  0
VISUALSTYLE
  5
2E
102
{ACAD_REACTORS
330
2A
102
}
330
2A
100
AcDbVisualStyle
  2
GouraudWithEdges
 70
     3
 71
     2
 72
     2
 73
     1
 90
        2
 40
-0.6
 41
30.0
 62
     5
 63
     7
 74
     1
 91
        4
 64
     7
 65
   257
 75
     1
175
     1
 42
1.0
 92
        0
 66
   257
 43
1.0
 76
     1
 77
     6
 78
     2
 67
     7
 79
     5
170
     0
171
     0
290
     0
174
     0
 93
       13
 44
0.0
173
     0
291
     1
 45
0.0
1001
ACAD
1000
AcDbSavedByObjectVersion
1070
     0
  0
VISUALSTYLE
  5
38
102
{ACAD_REACTORS
330
2A
102
}
330
2A
100
AcDbVisualStyle
  2
Linepattern
 70
    14
 71
     2
 72
     2
 73
     0
 90
        0
 40
-0.6
 41
-30.0
 62
     5
 63
     7
 74
     1
 91
        4
 64
     7
 65
   257
 75
     7
175
     7
 42
1.0
 92
        8
 66
     7
 43
1.0
 76
     1
 77
     6
 78
     2
 67
     7
 79
     5
170
     0
171
     0
290
     0
174
     0
 93
        1
 44
0.0
173
     0
291
     1
 45
0.0
1001
ACAD
1000
AcDbSavedByObjectVersion
1070
     0
  0
VISUALSTYLE
  5
33
102
{ACAD_REACTORS
330
2A
102
}
330
2A
100
AcDbVisualStyle
  2
Realistic
 70
     8
 71
     2
 72
     2
 73
     0
 90
        0
 40
-0.6
 41
-30.0
 62
     5
 63
     7
 74
     1
 91
        0
 64
     7
 65
   257
 75
     1
175
     1
 42
1.0
 92
        8
 66
     8
 43
1.0
 76
     1
 77
     6
 78
     2
 67
     7
 79
     5
170
     0
171
     0
290
     0
174
     0
 93
       13
 44
0.0
173
     0
291
     0
 45
0.0
1001
ACAD
1000
AcDbSavedByObjectVersion
1070
     0
  0
VISUALSTYLE
  5
37
102
{ACAD_REACTORS
330
2A
102
}
330
2A
100
AcDbVisualStyle
  2
Thicken
 70
    13
 71
     2
 72
     2
 73
     0
 90
        0
 40
-0.6
 41
-30.0
 62
     5
 63
     7
 74
     1
 91
        4
 64
     7
 65
   257
 75
     1
175
     1
 42
1.0
 92
       12
 66
     7
 43
1.0
 76
     1
 77
     6
 78
     2
 67
     7
 79
     5
170
     0
171
     0
290
     0
174
     0
 93
        1
 44
0.0
173
     0
291
     1
 45
0.0
1001
ACAD
1000
AcDbSavedByObjectVersion
1070
     0
  0
DICTIONARYVAR
  5
2FC
102
{ACAD_REACTORS
330
2F7
102
}
330
2F7
100
DictionaryVariables
280
     0
  1
1:1
  0
DICTIONARYVAR
  5
2FD
102
{ACAD_REACTORS
330
2F7
102
}
330
2F7
100
DictionaryVariables
280
     0
  1
2
  0
DICTIONARYVAR
  5
2FE
102
{ACAD_REACTORS
330
2F7
102
}
330
2F7
100
DictionaryVariables
280
     0
  1
1
  0
DICTIONARYVAR
  5
2FB
102
{ACAD_REACTORS
330
2F7
102
}
330
2F7
100
DictionaryVariables
280
     0
  1
80.000000
  0
DICTIONARYVAR
  5
2FA
102
{ACAD_REACTORS
330
2F7
102
}
330
2F7
100
DictionaryVariables
280
     0
  1
5.000000
  0
ENDSEC
  0
EOF
