  0
SECTION
  2
HEADER
  9
$ACADVER
  1
AC1015
  9
$ACADMAINTVER
 70
     6
  9
$DWGCODEPAGE
  3
ANSI_1252
  9
$INSBASE
 10
0.0
 20
0.0
 30
0.0
  9
$EXTMIN
 10
0.0
 20
0.0
 30
0.0
  9
$EXTMAX
 10
840.0
 20
594.0
 30
0.0
  9
$LIMMIN
 10
0.0
 20
0.0
  9
$LIMMAX
 10
840.0
 20
594.0
  9
$ORTHOMODE
 70
     0
  9
$REGENMODE
 70
     1
  9
$FILLMODE
 70
     1
  9
$QTEXTMODE
 70
     0
  9
$MIRRTEXT
 70
     1
  9
$LTSCALE
 40
2.0
  9
$ATTMODE
 70
     1
  9
$TEXTSIZE
 40
7.0
  9
$TRACEWID
 40
1.0
  9
$TEXTSTYLE
  7
Standard
  9
$CLAYER
  8
0
  9
$CELTYPE
  6
ByLayer
  9
$CECOLOR
 62
   256
  9
$CELTSCALE
 40
1.0
  9
$DISPSILH
 70
     0
  9
$DIMSCALE
 40
1.0
  9
$DIMASZ
 40
7.0
  9
$DIMEXO
 40
2.0
  9
$DIMDLI
 40
3.75
  9
$DIMRND
 40
0.0
  9
$DIMDLE
 40
0.0
  9
$DIMEXE
 40
2.0
  9
$DIMTP
 40
0.0
  9
$DIMTM
 40
0.0
  9
$DIMTXT
 40
7.0
  9
$DIMCEN
 40
2.5
  9
$DIMTSZ
 40
0.0
  9
$DIMTOL
 70
     0
  9
$DIMLIM
 70
     0
  9
$DIMTIH
 70
     1
  9
$DIMTOH
 70
     1
  9
$DIMSE1
 70
     0
  9
$DIMSE2
 70
     0
  9
$DIMTAD
 70
     1
  9
$DIMZIN
 70
     0
  9
$DIMBLK
  1

  9
$DIMASO
 70
     1
  9
$DIMSHO
 70
     1
  9
$DIMPOST
  1

  9
$DIMAPOST
  1

  9
$DIMALT
 70
     0
  9
$DIMALTD
 70
     3
  9
$DIMALTF
 40
0.0393700787
  9
$DIMLFAC
 40
1.0
  9
$DIMTOFL
 70
     1
  9
$DIMTVP
 40
0.0
  9
$DIMTIX
 70
     0
  9
$DIMSOXD
 70
     0
  9
$DIMSAH
 70
     0
  9
$DIMBLK1
  1

  9
$DIMBLK2
  1

  9
$DIMSTYLE
  2
ISO-25
  9
$DIMCLRD
 70
     0
  9
$DIMCLRE
 70
     0
  9
$DIMCLRT
 70
     0
  9
$DIMTFAC
 40
1.0
  9
$DIMGAP
 40
3.048
  9
$DIMJUST
 70
     0
  9
$DIMSD1
 70
     0
  9
$DIMSD2
 70
     0
  9
$DIMTOLJ
 70
     0
  9
$DIMTZIN
 70
     0
  9
$DIMALTZ
 70
     0
  9
$DIMALTTZ
 70
     0
  9
$DIMUPT
 70
     0
  9
$DIMDEC
 70
     2
  9
$DIMTDEC
 70
     2
  9
$DIMALTU
 70
     2
  9
$DIMALTTD
 70
     3
  9
$DIMTXSTY
  7
Standard
  9
$DIMAUNIT
 70
     0
  9
$DIMADEC
 70
     2
  9
$DIMALTRND
 40
0.0
  9
$DIMAZIN
 70
     0
  9
$DIMDSEP
 70
    44
  9
$DIMATFIT
 70
     3
  9
$DIMFRAC
 70
     0
  9
$DIMLDRBLK
  1

  9
$DIMLUNIT
 70
     2
  9
$DIMLWD
 70
    -2
  9
$DIMLWE
 70
    -2
  9
$DIMTMOVE
 70
     0
  9
$LUNITS
 70
     2
  9
$LUPREC
 70
     2
  9
$SKETCHINC
 40
1.0
  9
$FILLETRAD
 40
10.0
  9
$AUNITS
 70
     0
  9
$AUPREC
 70
     2
  9
$MENU
  1
.
  9
$ELEVATION
 40
0.0
  9
$PELEVATION
 40
0.0
  9
$THICKNESS
 40
0.0
  9
$LIMCHECK
 70
     0
  9
$CHAMFERA
 40
10.0
  9
$CHAMFERB
 40
10.0
  9
$CHAMFERC
 40
20.0
  9
$CHAMFERD
 40
0.0
  9
$SKPOLY
 70
     0
  9
$TDCREATE
 40
2456550.803891493
  9
$TDUCREATE
 40
2456550.72055816
  9
$TDUPDATE
 40
2456550.803914641
  9
$TDUUPDATE
 40
2456550.720581308
  9
$TDINDWG
 40
0.0000000116
  9
$TDUSRTIMER
 40
0.0000000116
  9
$USRTIMER
 70
     1
  9
$ANGBASE
 50
0.0
  9
$ANGDIR
 70
     0
  9
$PDMODE
 70
     0
  9
$PDSIZE
 40
-1.0
  9
$PLINEWID
 40
0.0
  9
$SPLFRAME
 70
     0
  9
$SPLINETYPE
 70
     6
  9
$SPLINESEGS
 70
     8
  9
$HANDSEED
  5
2B4
  9
$SURFTAB1
 70
     6
  9
$SURFTAB2
 70
     6
  9
$SURFTYPE
 70
     6
  9
$SURFU
 70
     6
  9
$SURFV
 70
     6
  9
$UCSBASE
  2

  9
$UCSNAME
  2

  9
$UCSORG
 10
0.0
 20
0.0
 30
0.0
  9
$UCSXDIR
 10
1.0
 20
0.0
 30
0.0
  9
$UCSYDIR
 10
0.0
 20
1.0
 30
0.0
  9
$UCSORTHOREF
  2

  9
$UCSORTHOVIEW
 70
     0
  9
$UCSORGTOP
 10
0.0
 20
0.0
 30
0.0
  9
$UCSORGBOTTOM
 10
0.0
 20
0.0
 30
0.0
  9
$UCSORGLEFT
 10
0.0
 20
0.0
 30
0.0
  9
$UCSORGRIGHT
 10
0.0
 20
0.0
 30
0.0
  9
$UCSORGFRONT
 10
0.0
 20
0.0
 30
0.0
  9
$UCSORGBACK
 10
0.0
 20
0.0
 30
0.0
  9
$PUCSBASE
  2

  9
$PUCSNAME
  2

  9
$PUCSORG
 10
0.0
 20
0.0
 30
0.0
  9
$PUCSXDIR
 10
1.0
 20
0.0
 30
0.0
  9
$PUCSYDIR
 10
0.0
 20
1.0
 30
0.0
  9
$PUCSORTHOREF
  2

  9
$PUCSORTHOVIEW
 70
     0
  9
$PUCSORGTOP
 10
0.0
 20
0.0
 30
0.0
  9
$PUCSORGBOTTOM
 10
0.0
 20
0.0
 30
0.0
  9
$PUCSORGLEFT
 10
0.0
 20
0.0
 30
0.0
  9
$PUCSORGRIGHT
 10
0.0
 20
0.0
 30
0.0
  9
$PUCSORGFRONT
 10
0.0
 20
0.0
 30
0.0
  9
$PUCSORGBACK
 10
0.0
 20
0.0
 30
0.0
  9
$USERI1
 70
     0
  9
$USERI2
 70
     0
  9
$USERI3
 70
     0
  9
$USERI4
 70
     0
  9
$USERI5
 70
     0
  9
$USERR1
 40
0.0
  9
$USERR2
 40
0.0
  9
$USERR3
 40
0.0
  9
$USERR4
 40
0.0
  9
$USERR5
 40
0.0
  9
$WORLDVIEW
 70
     1
  9
$SHADEDGE
 70
     3
  9
$SHADEDIF
 70
    70
  9
$TILEMODE
 70
     1
  9
$MAXACTVP
 70
    64
  9
$PINSBASE
 10
0.0
 20
0.0
 30
0.0
  9
$PLIMCHECK
 70
     0
  9
$PEXTMIN
 10
1.0000000000E+20
 20
1.0000000000E+20
 30
1.0000000000E+20
  9
$PEXTMAX
 10
-1.0000000000E+20
 20
-1.0000000000E+20
 30
-1.0000000000E+20
  9
$PLIMMIN
 10
0.0
 20
0.0
  9
$PLIMMAX
 10
420.0
 20
297.0
  9
$UNITMODE
 70
     0
  9
$VISRETAIN
 70
     1
  9
$PLINEGEN
 70
     0
  9
$PSLTSCALE
 70
     1
  9
$TREEDEPTH
 70
  3020
  9
$CMLSTYLE
  2
Standard
  9
$CMLJUST
 70
     0
  9
$CMLSCALE
 40
20.0
  9
$PROXYGRAPHICS
 70
     1
  9
$MEASUREMENT
 70
     1
  9
$CELWEIGHT
370
    -1
  9
$ENDCAPS
280
     0
  9
$JOINSTYLE
280
     0
  9
$LWDISPLAY
290
     1
  9
$INSUNITS
 70
     4
  9
$HYPERLINKBASE
  1

  9
$STYLESHEET
  1

  9
$XEDIT
290
     1
  9
$CEPSNTYPE
380
     0
  9
$PSTYLEMODE
290
     1
  9
$FINGERPRINTGUID
  2
{573123AB-7B29-488A-85DA-ECB2C042FB66}
  9
$VERSIONGUID
  2
{FAEB1C32-E019-11D5-929B-00C0DF256EC4}
  9
$EXTNAMES
290
     1
  9
$PSVPSCALE
 40
0.0
  9
$OLESTARTUP
290
     0
  0
ENDSEC
  0
SECTION
  2
CLASSES
  0
CLASS
  1
ACDBDICTIONARYWDFLT
  2
AcDbDictionaryWithDefault
  3
ObjectDBX Classes
 90
        0
280
     0
281
     0
  0
CLASS
  1
VISUALSTYLE
  2
AcDbVisualStyle
  3
ObjectDBX Classes
 90
     4095
280
     0
281
     0
  0
CLASS
  1
MATERIAL
  2
AcDbMaterial
  3
ObjectDBX Classes
 90
     1153
280
     0
281
     0
  0
CLASS
  1
ACDBPLACEHOLDER
  2
AcDbPlaceHolder
  3
ObjectDBX Classes
 90
        0
280
     0
281
     0
  0
CLASS
  1
LAYOUT
  2
AcDbLayout
  3
ObjectDBX Classes
 90
        0
280
     0
281
     0
  0
ENDSEC
  0
SECTION
  2
TABLES
  0
TABLE
  2
VPORT
  5
8
330
0
100
AcDbSymbolTable
 70
     1
  0
VPORT
  5
29
330
8
100
AcDbSymbolTableRecord
100
AcDbViewportTableRecord
  2
*Active
 70
     0
 10
0.0
 20
0.0
 11
1.0
 21
1.0
 12
420.0
 22
297.0
 13
0.0
 23
0.0
 14
10.0
 24
10.0
 15
10.0
 25
10.0
 16
0.0
 26
0.0
 36
1.0
 17
0.0
 27
0.0
 37
0.0
 40
594.0
 41
1.4141414141
 42
50.0
 43
0.0
 44
0.0
 50
0.0
 51
0.0
 71
     0
 72
  2000
 73
     1
 74
     3
 75
     0
 76
     0
 77
     0
 78
     0
281
     0
 65
     1
110
0.0
120
0.0
130
0.0
111
1.0
121
0.0
131
0.0
112
0.0
122
1.0
132
0.0
 79
     0
146
0.0
  0
ENDTAB
  0
TABLE
  2
LTYPE
  5
5
330
0
100
AcDbSymbolTable
 70
     6
  0
LTYPE
  5
14
330
5
100
AcDbSymbolTableRecord
100
AcDbLinetypeTableRecord
  2
ByBlock
 70
     0
  3

 72
    65
 73
     0
 40
0.0
  0
LTYPE
  5
15
330
5
100
AcDbSymbolTableRecord
100
AcDbLinetypeTableRecord
  2
ByLayer
 70
     0
  3

 72
    65
 73
     0
 40
0.0
  0
LTYPE
  5
16
330
5
100
AcDbSymbolTableRecord
100
AcDbLinetypeTableRecord
  2
Continuous
 70
     0
  3
Solid line
 72
    65
 73
     0
 40
0.0
  0
LTYPE
  5
3F
330
5
100
AcDbSymbolTableRecord
100
AcDbLinetypeTableRecord
  2
HIDDEN
 70
     0
  3
Hidden __ __ __ __ __ __ __ __ __ __ __ __ __ __
 72
    65
 73
     2
 40
1.905
 49
1.27
 74
     0
 49
-0.635
 74
     0
  0
LTYPE
  5
40
330
5
100
AcDbSymbolTableRecord
100
AcDbLinetypeTableRecord
  2
PHANTOM
 70
     0
  3
Phantom ______  __  __  ______  __  __  ______
 72
    65
 73
     6
 40
12.7
 49
6.35
 74
     0
 49
-1.27
 74
     0
 49
1.27
 74
     0
 49
-1.27
 74
     0
 49
1.27
 74
     0
 49
-1.27
 74
     0
  0
LTYPE
  5
41
330
5
100
AcDbSymbolTableRecord
100
AcDbLinetypeTableRecord
  2
CENTER
 70
     0
  3
Center ____ _ ____ _ ____ _ ____ _ ____ _ ____
 72
    65
 73
     4
 40
10.16
 49
6.35
 74
     0
 49
-1.27
 74
     0
 49
1.27
 74
     0
 49
-1.27
 74
     0
  0
LTYPE
  5
42
330
5
100
AcDbSymbolTableRecord
100
AcDbLinetypeTableRecord
  2
CENTERX2
 70
     0
  3
Center (2x) ________  __  ________  __  _____
 72
    65
 73
     4
 40
20.32
 49
12.7
 74
     0
 49
-2.54
 74
     0
 49
2.54
 74
     0
 49
-2.54
 74
     0
  0
LTYPE
  5
43
330
5
100
AcDbSymbolTableRecord
100
AcDbLinetypeTableRecord
  2
DOT2
 70
     0
  3
Dot (.5x) ........................................
 72
    65
 73
     2
 40
0.635
 49
0.0
 74
     0
 49
-0.635
 74
     0
  0
ENDTAB
  0
TABLE
  2
LAYER
  5
2
330
0
100
AcDbSymbolTable
 70
    11
  0
LAYER
  5
10
330
2
100
AcDbSymbolTableRecord
100
AcDbLayerTableRecord
  2
0
 70
     0
 62
     7
  6
Continuous
370
    -3
390
F
  0
LAYER
  5
44
330
2
100
AcDbSymbolTableRecord
100
AcDbLayerTableRecord
  2
SLD-0
 70
     0
 62
     7
  6
Continuous
370
    -3
390
F
  0
LAYER
  5
45
330
2
100
AcDbSymbolTableRecord
100
AcDbLayerTableRecord
  2
CONTORNO
 70
     0
 62
     7
  6
Continuous
370
    30
390
F
  0
LAYER
  5
46
330
2
100
AcDbSymbolTableRecord
100
AcDbLayerTableRecord
  2
RIQUADRO
 70
     0
 62
     5
  6
Continuous
370
    -3
390
F
  0
LAYER
  5
47
330
2
100
AcDbSymbolTableRecord
100
AcDbLayerTableRecord
  2
LOGO
 70
     0
 62
   176
  6
Continuous
370
    -3
390
F
  0
LAYER
  5
48
330
2
100
AcDbSymbolTableRecord
100
AcDbLayerTableRecord
  2
PROIEZ
 70
     0
 62
    16
  6
Continuous
370
    15
390
F
  0
LAYER
  5
49
330
2
100
AcDbSymbolTableRecord
100
AcDbLayerTableRecord
  2
CARTIGLIO
 70
     0
 62
     5
  6
Continuous
370
    -3
390
F
  0
LAYER
  5
4A
330
2
100
AcDbSymbolTableRecord
100
AcDbLayerTableRecord
  2
TABELLA_REV
 70
     0
 62
   136
  6
Continuous
370
    -3
390
F
  0
LAYER
  5
4B
330
2
100
AcDbSymbolTableRecord
100
AcDbLayerTableRecord
  2
1_HATCH
 70
     0
 62
   179
  6
Continuous
370
    -3
390
F
  0
LAYER
  5
4C
330
2
100
AcDbSymbolTableRecord
100
AcDbLayerTableRecord
  2
2
 70
     0
 62
   179
  6
Continuous
370
    -3
390
F
  0
LAYER
  5
4D
330
2
100
AcDbSymbolTableRecord
100
AcDbLayerTableRecord
  2
3_HATCH_2
 70
     0
 62
     4
  6
Continuous
370
    -3
390
F
  0
ENDTAB
  0
TABLE
  2
STYLE
  5
3
330
0
100
AcDbSymbolTable
 70
     5
  0
STYLE
  5
11
330
3
100
AcDbSymbolTableRecord
100
AcDbTextStyleTableRecord
  2
Standard
 70
     0
 40
0.0
 41
1.0
 50
0.0
 71
     0
 42
7.0
  3
txt
  4

  0
STYLE
  5
B8
330
3
100
AcDbSymbolTableRecord
100
AcDbTextStyleTableRecord
  2
SLDTEXTSTYLE0
 70
     0
 40
0.0
 41
0.75
 50
0.0
 71
     0
 42
0.2
  3
TXT
  4

  0
STYLE
  5
128
330
3
100
AcDbSymbolTableRecord
100
AcDbTextStyleTableRecord
  2
SLDTEXTSTYLE1
 70
     0
 40
0.0
 41
0.7
 50
0.0
 71
     0
 42
0.2
  3
TXT
  4

  0
STYLE
  5
13B
330
3
100
AcDbSymbolTableRecord
100
AcDbTextStyleTableRecord
  2
SLDTEXTSTYLE2
 70
     0
 40
0.0
 41
0.6527472527
 50
0.0
 71
     0
 42
0.2
  3
TXT
  4

  0
STYLE
  5
13F
330
3
100
AcDbSymbolTableRecord
100
AcDbTextStyleTableRecord
  2
SLDTEXTSTYLE3
 70
     0
 40
0.0
 41
0.6375
 50
0.0
 71
     0
 42
0.2
  3
TXT
  4

  0
ENDTAB
  0
TABLE
  2
VIEW
  5
6
330
0
100
AcDbSymbolTable
 70
     0
  0
ENDTAB
  0
TABLE
  2
UCS
  5
7
330
0
100
AcDbSymbolTable
 70
     0
  0
ENDTAB
  0
TABLE
  2
APPID
  5
9
330
0
100
AcDbSymbolTable
 70
     1
  0
APPID
  5
12
330
9
100
AcDbSymbolTableRecord
100
AcDbRegAppTableRecord
  2
ACAD
 70
     0
  0
ENDTAB
  0
TABLE
  2
DIMSTYLE
  5
A
330
0
100
AcDbSymbolTable
 70
     7
100
AcDbDimStyleTable
  0
DIMSTYLE
105
27
330
A
100
AcDbSymbolTableRecord
100
AcDbDimStyleTableRecord
  2
ISO-25
 70
     0
 41
2.5
 42
0.625
 43
3.75
 44
1.25
 73
     0
 74
     0
 77
     1
 78
     8
140
2.5
141
2.5
143
0.0393700787
147
0.625
171
     3
172
     1
178
     0
271
     2
272
     2
274
     3
278
    44
283
     0
284
     8
340
11
  0
DIMSTYLE
105
1D0
102
{ACAD_REACTORS
330
1CF
102
}
330
A
100
AcDbSymbolTableRecord
100
AcDbDimStyleTableRecord
  2
SLDDIMSTYLE0
 70
     0
 41
0.7179487179
 44
0.0
 45
0.000000001
 78
    12
 79
     3
140
7.0
147
1.75
173
     1
178
     0
271
     0
272
     0
276
     2
284
    12
340
B8
341
1D1
343
1D1
344
1D1
  0
DIMSTYLE
105
1DF
102
{ACAD_REACTORS
330
1DE
330
1EE
330
1F6
330
1FE
330
206
330
20E
330
216
330
220
102
}
330
A
100
AcDbSymbolTableRecord
100
AcDbDimStyleTableRecord
  2
SLDDIMSTYLE1
 70
     0
 41
7.0
 44
0.0
 45
0.000000001
 78
    12
 79
     3
140
7.0
147
1.75
173
     1
178
     0
271
     2
272
     2
276
     2
284
    12
340
B8
341
1E0
343
1E0
344
1E0
  0
DIMSTYLE
105
22B
102
{ACAD_REACTORS
330
22A
102
}
330
A
100
AcDbSymbolTableRecord
100
AcDbDimStyleTableRecord
  2
SLDDIMSTYLE2
 70
     0
 41
7.0
 44
0.0
 45
0.000000001
 73
     0
 74
     0
 77
     1
 78
    12
 79
     3
140
7.0
147
1.75
173
     1
178
     0
271
     2
272
     2
276
     2
284
    12
340
B8
341
1E0
343
1E0
344
1E0
  0
DIMSTYLE
105
23C
102
{ACAD_REACTORS
330
23B
102
}
330
A
100
AcDbSymbolTableRecord
100
AcDbDimStyleTableRecord
  2
SLDDIMSTYLE3
 70
     0
 41
7.0
 44
0.0
 45
0.000000001
 48
0.054
 71
     1
 73
     0
 74
     0
 77
     1
 78
    12
 79
     3
140
7.0
147
1.75
172
     1
173
     1
178
     0
271
     2
272
     2
276
     2
284
     8
289
     0
340
B8
341
1E0
343
1E0
344
1E0
  0
DIMSTYLE
105
250
102
{ACAD_REACTORS
330
24F
102
}
330
A
100
AcDbSymbolTableRecord
100
AcDbDimStyleTableRecord
  2
SLDDIMSTYLE4
 70
     0
 41
7.0
 44
0.0
 45
0.000000001
 48
0.039
 71
     1
 73
     0
 74
     0
 77
     1
 78
    12
 79
     3
140
7.0
147
1.75
173
     1
178
     0
271
     2
272
     2
276
     2
284
     8
340
B8
341
1E0
343
1E0
344
1E0
  0
DIMSTYLE
105
2A8
102
{ACAD_REACTORS
330
2A7
102
}
330
A
100
AcDbSymbolTableRecord
100
AcDbDimStyleTableRecord
  2
SLDDIMSTYLE5
 70
     0
 41
7.0
 44
0.0
 45
0.000000001
 73
     0
 74
     0
 77
     1
 78
    12
 79
     3
140
7.0
141
0.0
147
1.75
172
     1
173
     1
178
     0
271
     2
272
     2
276
     2
284
    12
340
B8
341
1E0
343
1E0
344
1E0
  0
ENDTAB
  0
TABLE
  2
BLOCK_RECORD
  5
1
330
0
100
AcDbSymbolTable
 70
    26
  0
BLOCK_RECORD
  5
1F
330
1
100
AcDbSymbolTableRecord
100
AcDbBlockTableRecord
  2
*Model_Space
340
22
  0
BLOCK_RECORD
  5
1B
330
1
100
AcDbSymbolTableRecord
100
AcDbBlockTableRecord
  2
*Paper_Space
340
1E
  0
BLOCK_RECORD
  5
23
330
1
100
AcDbSymbolTableRecord
100
AcDbBlockTableRecord
  2
*Paper_Space0
340
26
  0
BLOCK_RECORD
  5
F5
330
1
100
AcDbSymbolTableRecord
100
AcDbBlockTableRecord
  2
SW_NOTE_0
340
0
102
{BLKREFS
331
FA
102
}
  0
BLOCK_RECORD
  5
FB
330
1
100
AcDbSymbolTableRecord
100
AcDbBlockTableRecord
  2
SW_NOTE_1
340
0
102
{BLKREFS
331
100
102
}
  0
BLOCK_RECORD
  5
101
330
1
100
AcDbSymbolTableRecord
100
AcDbBlockTableRecord
  2
SW_NOTE_2
340
0
102
{BLKREFS
331
106
102
}
  0
BLOCK_RECORD
  5
107
330
1
100
AcDbSymbolTableRecord
100
AcDbBlockTableRecord
  2
SW_NOTE_3
340
0
102
{BLKREFS
331
10C
102
}
  0
BLOCK_RECORD
  5
10D
330
1
100
AcDbSymbolTableRecord
100
AcDbBlockTableRecord
  2
SW_NOTE_4
340
0
102
{BLKREFS
331
112
102
}
  0
BLOCK_RECORD
  5
113
330
1
100
AcDbSymbolTableRecord
100
AcDbBlockTableRecord
  2
SW_NOTE_5
340
0
102
{BLKREFS
331
118
102
}
  0
BLOCK_RECORD
  5
119
330
1
100
AcDbSymbolTableRecord
100
AcDbBlockTableRecord
  2
SW_NOTE_6
340
0
102
{BLKREFS
331
11E
102
}
  0
BLOCK_RECORD
  5
11F
330
1
100
AcDbSymbolTableRecord
100
AcDbBlockTableRecord
  2
SW_NOTE_7
340
0
102
{BLKREFS
331
124
102
}
  0
BLOCK_RECORD
  5
12A
330
1
100
AcDbSymbolTableRecord
100
AcDbBlockTableRecord
  2
SW_NOTE_8
340
0
102
{BLKREFS
331
12F
102
}
  0
BLOCK_RECORD
  5
130
330
1
100
AcDbSymbolTableRecord
100
AcDbBlockTableRecord
  2
SW_NOTE_9
340
0
102
{BLKREFS
331
135
102
}
  0
BLOCK_RECORD
  5
1D1
330
1
100
AcDbSymbolTableRecord
100
AcDbBlockTableRecord
  2
_ORIGIN
340
0
102
{BLKREFS
331
1D9
102
}
  0
BLOCK_RECORD
  5
1D6
330
1
100
AcDbSymbolTableRecord
100
AcDbBlockTableRecord
  2
_D
340
0
  0
BLOCK_RECORD
  5
1E0
330
1
100
AcDbSymbolTableRecord
100
AcDbBlockTableRecord
  2
_CLOSED
340
0
102
{BLKREFS
331
1EA
331
1F2
331
1FA
331
202
331
20A
331
212
331
21A
331
224
331
22F
331
230
331
240
331
241
331
254
331
255
331
2AD
331
2AE
102
}
  0
BLOCK_RECORD
  5
1E7
330
1
100
AcDbSymbolTableRecord
100
AcDbBlockTableRecord
  2
_D_1
340
0
  0
BLOCK_RECORD
  5
1EF
330
1
100
AcDbSymbolTableRecord
100
AcDbBlockTableRecord
  2
_D_2
340
0
  0
BLOCK_RECORD
  5
1F7
330
1
100
AcDbSymbolTableRecord
100
AcDbBlockTableRecord
  2
_D_3
340
0
  0
BLOCK_RECORD
  5
1FF
330
1
100
AcDbSymbolTableRecord
100
AcDbBlockTableRecord
  2
_D_4
340
0
  0
BLOCK_RECORD
  5
207
330
1
100
AcDbSymbolTableRecord
100
AcDbBlockTableRecord
  2
_D_5
340
0
  0
BLOCK_RECORD
  5
20F
330
1
100
AcDbSymbolTableRecord
100
AcDbBlockTableRecord
  2
_D_6
340
0
  0
BLOCK_RECORD
  5
217
330
1
100
AcDbSymbolTableRecord
100
AcDbBlockTableRecord
  2
_D_7
340
0
  0
BLOCK_RECORD
  5
221
330
1
100
AcDbSymbolTableRecord
100
AcDbBlockTableRecord
  2
_D_8
340
0
  0
BLOCK_RECORD
  5
22C
330
1
100
AcDbSymbolTableRecord
100
AcDbBlockTableRecord
  2
_D_9
340
0
  0
BLOCK_RECORD
  5
23D
330
1
100
AcDbSymbolTableRecord
100
AcDbBlockTableRecord
  2
_D_10
340
0
  0
BLOCK_RECORD
  5
251
330
1
100
AcDbSymbolTableRecord
100
AcDbBlockTableRecord
  2
_D_11
340
0
  0
BLOCK_RECORD
  5
2A9
330
1
100
AcDbSymbolTableRecord
100
AcDbBlockTableRecord
  2
_D_12
340
0
  0
ENDTAB
  0
ENDSEC
  0
SECTION
  2
BLOCKS
  0
BLOCK
  5
20
330
1F
100
AcDbEntity
  8
0
100
AcDbBlockBegin
  2
*Model_Space
 70
     0
 10
0.0
 20
0.0
 30
0.0
  3
*Model_Space
  1

  0
ENDBLK
  5
21
330
1F
100
AcDbEntity
  8
0
100
AcDbBlockEnd
  0
BLOCK
  5
1C
330
1B
100
AcDbEntity
 67
     1
  8
0
100
AcDbBlockBegin
  2
*Paper_Space
 70
     0
 10
0.0
 20
0.0
 30
0.0
  3
*Paper_Space
  1

  0
ENDBLK
  5
1D
330
1B
100
AcDbEntity
 67
     1
  8
0
100
AcDbBlockEnd
  0
BLOCK
  5
24
330
23
100
AcDbEntity
  8
0
100
AcDbBlockBegin
  2
*Paper_Space0
 70
     0
 10
0.0
 20
0.0
 30
0.0
  3
*Paper_Space0
  1

  0
ENDBLK
  5
25
330
23
100
AcDbEntity
  8
0
100
AcDbBlockEnd
  0
BLOCK
  5
F6
330
F5
100
AcDbEntity
  8
0
100
AcDbBlockBegin
  2
SW_NOTE_0
 70
     0
 10
0.0
 20
0.0
 30
0.0
  3
SW_NOTE_0
  1

  0
MTEXT
  5
F8
330
F5
100
AcDbEntity
  8
CARTIGLIO
 62
     0
100
AcDbMText
 10
14.625
 20
5.1562709591
 30
0.0
 40
4.0
 41
0.0
 71
     3
 72
     1
  1
>2000
  7
SLDTEXTSTYLE0
 73
     1
 44
1.0
  0
MTEXT
  5
F9
330
F5
100
AcDbEntity
  8
CARTIGLIO
 62
     0
100
AcDbMText
 10
14.5145831555
 20
-0.8437290931
 30
0.0
 40
4.0
 41
0.0
 71
     3
 72
     1
  1
÷4000
  7
SLDTEXTSTYLE0
 73
     1
 44
1.0
  0
ENDBLK
  5
F7
330
F5
100
AcDbEntity
  8
0
100
AcDbBlockEnd
  0
BLOCK
  5
FC
330
FB
100
AcDbEntity
  8
0
100
AcDbBlockBegin
  2
SW_NOTE_1
 70
     0
 10
0.0
 20
0.0
 30
0.0
  3
SW_NOTE_1
  1

  0
MTEXT
  5
FE
330
FB
100
AcDbEntity
  8
CARTIGLIO
 62
     0
100
AcDbMText
 10
14.625
 20
5.1562709591
 30
0.0
 40
4.0
 41
0.0
 71
     3
 72
     1
  1
>1000
  7
SLDTEXTSTYLE0
 73
     1
 44
1.0
  0
MTEXT
  5
FF
330
FB
100
AcDbEntity
  8
CARTIGLIO
 62
     0
100
AcDbMText
 10
14.3222231343
 20
-0.8437290931
 30
0.0
 40
4.0
 41
0.0
 71
     3
 72
     1
  1
÷2000
  7
SLDTEXTSTYLE0
 73
     1
 44
1.0
  0
ENDBLK
  5
FD
330
FB
100
AcDbEntity
  8
0
100
AcDbBlockEnd
  0
BLOCK
  5
102
330
101
100
AcDbEntity
  8
0
100
AcDbBlockBegin
  2
SW_NOTE_2
 70
     0
 10
0.0
 20
0.0
 30
0.0
  3
SW_NOTE_2
  1

  0
MTEXT
  5
104
330
101
100
AcDbEntity
  8
CARTIGLIO
 62
     0
100
AcDbMText
 10
14.5
 20
5.1562709591
 30
0.0
 40
4.0
 41
0.0
 71
     3
 72
     1
  1
>400÷
  7
SLDTEXTSTYLE0
 73
     1
 44
1.0
  0
MTEXT
  5
105
330
101
100
AcDbEntity
  8
CARTIGLIO
 62
     0
100
AcDbMText
 10
14.854861401
 20
-0.8437290931
 30
0.0
 40
4.0
 41
0.0
 71
     3
 72
     1
  1
1000
  7
SLDTEXTSTYLE0
 73
     1
 44
1.0
  0
ENDBLK
  5
103
330
101
100
AcDbEntity
  8
0
100
AcDbBlockEnd
  0
BLOCK
  5
108
330
107
100
AcDbEntity
  8
0
100
AcDbBlockBegin
  2
SW_NOTE_3
 70
     0
 10
0.0
 20
0.0
 30
0.0
  3
SW_NOTE_3
  1

  0
MTEXT
  5
10A
330
107
100
AcDbEntity
  8
CARTIGLIO
 62
     0
100
AcDbMText
 10
11.75
 20
5.1562709591
 30
0.0
 40
4.0
 41
0.0
 71
     3
 72
     1
  1
>120
  7
SLDTEXTSTYLE0
 73
     1
 44
1.0
  0
MTEXT
  5
10B
330
107
100
AcDbEntity
  8
CARTIGLIO
 62
     0
100
AcDbMText
 10
11.4354167581
 20
-0.8437290931
 30
0.0
 40
4.0
 41
0.0
 71
     3
 72
     1
  1
÷400
  7
SLDTEXTSTYLE0
 73
     1
 44
1.0
  0
ENDBLK
  5
109
330
107
100
AcDbEntity
  8
0
100
AcDbBlockEnd
  0
BLOCK
  5
10E
330
10D
100
AcDbEntity
  8
0
100
AcDbBlockBegin
  2
SW_NOTE_4
 70
     0
 10
0.0
 20
0.0
 30
0.0
  3
SW_NOTE_4
  1

  0
MTEXT
  5
110
330
10D
100
AcDbEntity
  8
CARTIGLIO
 62
     0
100
AcDbMText
 10
11.625
 20
5.1562709591
 30
0.0
 40
4.0
 41
0.0
 71
     3
 72
     1
  1
>30÷
  7
SLDTEXTSTYLE0
 73
     1
 44
1.0
  0
MTEXT
  5
111
330
10D
100
AcDbEntity
  8
CARTIGLIO
 62
     0
100
AcDbMText
 10
11.9673611894
 20
-0.8437290931
 30
0.0
 40
4.0
 41
0.0
 71
     3
 72
     1
  1
120
  7
SLDTEXTSTYLE0
 73
     1
 44
1.0
  0
ENDBLK
  5
10F
330
10D
100
AcDbEntity
  8
0
100
AcDbBlockEnd
  0
BLOCK
  5
114
330
113
100
AcDbEntity
  8
0
100
AcDbBlockBegin
  2
SW_NOTE_5
 70
     0
 10
0.0
 20
0.0
 30
0.0
  3
SW_NOTE_5
  1

  0
MTEXT
  5
116
330
113
100
AcDbEntity
  8
CARTIGLIO
 62
     0
100
AcDbMText
 10
8.75
 20
5.1562709591
 30
0.0
 40
4.0
 41
0.0
 71
     3
 72
     1
  1
>6÷
  7
SLDTEXTSTYLE0
 73
     1
 44
1.0
  0
MTEXT
  5
117
330
113
100
AcDbEntity
  8
CARTIGLIO
 62
     0
100
AcDbMText
 10
8.8680558726
 20
-0.8437290931
 30
0.0
 40
4.0
 41
0.0
 71
     3
 72
     1
  1
30
  7
SLDTEXTSTYLE0
 73
     1
 44
1.0
  0
ENDBLK
  5
115
330
113
100
AcDbEntity
  8
0
100
AcDbBlockEnd
  0
BLOCK
  5
11A
330
119
100
AcDbEntity
  8
0
100
AcDbBlockBegin
  2
SW_NOTE_6
 70
     0
 10
0.0
 20
0.0
 30
0.0
  3
SW_NOTE_6
  1

  0
MTEXT
  5
11C
330
119
100
AcDbEntity
  8
CARTIGLIO
 62
     0
100
AcDbMText
 10
8.75
 20
5.1562709591
 30
0.0
 40
4.0
 41
0.0
 71
     3
 72
     1
  1
>3÷
  7
SLDTEXTSTYLE0
 73
     1
 44
1.0
  0
MTEXT
  5
11D
330
119
100
AcDbEntity
  8
CARTIGLIO
 62
     0
100
AcDbMText
 10
8.9562497977
 20
-0.8437290931
 30
0.0
 40
4.0
 41
0.0
 71
     3
 72
     1
  1
6
  7
SLDTEXTSTYLE0
 73
     1
 44
1.0
  0
ENDBLK
  5
11B
330
119
100
AcDbEntity
  8
0
100
AcDbBlockEnd
  0
BLOCK
  5
120
330
11F
100
AcDbEntity
  8
0
100
AcDbBlockBegin
  2
SW_NOTE_7
 70
     0
 10
0.0
 20
0.0
 30
0.0
  3
SW_NOTE_7
  1

  0
MTEXT
  5
122
330
11F
100
AcDbEntity
  8
CARTIGLIO
 62
     0
100
AcDbMText
 10
7.125
 20
5.1562709591
 30
0.0
 40
4.0
 41
0.0
 71
     3
 72
     1
  1
0.5
  7
SLDTEXTSTYLE0
 73
     1
 44
1.0
  0
MTEXT
  5
123
330
11F
100
AcDbEntity
  8
CARTIGLIO
 62
     0
100
AcDbMText
 10
7.0131949708
 20
-0.8437290931
 30
0.0
 40
4.0
 41
0.0
 71
     3
 72
     1
  1
÷3
  7
SLDTEXTSTYLE0
 73
     1
 44
1.0
  0
ENDBLK
  5
121
330
11F
100
AcDbEntity
  8
0
100
AcDbBlockEnd
  0
BLOCK
  5
12B
330
12A
100
AcDbEntity
  8
0
100
AcDbBlockBegin
  2
SW_NOTE_8
 70
     0
 10
0.0
 20
0.0
 30
0.0
  3
SW_NOTE_8
  1

  0
MTEXT
  5
12D
330
12A
100
AcDbEntity
  8
CARTIGLIO
 62
     0
100
AcDbMText
 10
0.0
 20
5.1562709591
 30
0.0
 40
4.0
 41
0.0
 71
     1
 72
     1
  1
Undimensioned
  7
SLDTEXTSTYLE0
 73
     1
 44
1.0
  0
MTEXT
  5
12E
330
12A
100
AcDbEntity
  8
CARTIGLIO
 62
     0
100
AcDbMText
 10
0.0
 20
-0.8437290931
 30
0.0
 40
4.0
 41
0.0
 71
     1
 72
     1
  1
bevels
  7
SLDTEXTSTYLE0
 73
     1
 44
1.0
  0
ENDBLK
  5
12C
330
12A
100
AcDbEntity
  8
0
100
AcDbBlockEnd
  0
BLOCK
  5
131
330
130
100
AcDbEntity
  8
0
100
AcDbBlockBegin
  2
SW_NOTE_9
 70
     0
 10
0.0
 20
0.0
 30
0.0
  3
SW_NOTE_9
  1

  0
MTEXT
  5
133
330
130
100
AcDbEntity
  8
CARTIGLIO
 62
     0
100
AcDbMText
 10
0.0
 20
5.1562709591
 30
0.0
 40
4.0
 41
0.0
 71
     1
 72
     1
  1
Undimensioned
  7
SLDTEXTSTYLE0
 73
     1
 44
1.0
  0
MTEXT
  5
134
330
130
100
AcDbEntity
  8
CARTIGLIO
 62
     0
100
AcDbMText
 10
0.0
 20
-0.8437290931
 30
0.0
 40
4.0
 41
0.0
 71
     1
 72
     1
  1
radii
  7
SLDTEXTSTYLE0
 73
     1
 44
1.0
  0
ENDBLK
  5
132
330
130
100
AcDbEntity
  8
0
100
AcDbBlockEnd
  0
BLOCK
  5
1D2
330
1D1
100
AcDbEntity
  8
0
100
AcDbBlockBegin
  2
_ORIGIN
 70
     0
 10
0.0
 20
0.0
 30
0.0
  3
_ORIGIN
  1

  0
CIRCLE
  5
1D4
330
1D1
100
AcDbEntity
  8
0
  6
ByBlock
 62
     0
370
    -2
100
AcDbCircle
 10
0.0
 20
0.0
 30
0.0
 40
0.5
  0
LINE
  5
1D5
330
1D1
100
AcDbEntity
  8
0
  6
ByBlock
 62
     0
370
    -2
100
AcDbLine
 10
0.0
 20
0.0
 30
0.0
 11
-1.0
 21
0.0
 31
0.0
  0
ENDBLK
  5
1D3
330
1D1
100
AcDbEntity
  8
0
100
AcDbBlockEnd
  0
BLOCK
  5
1D7
330
1D6
100
AcDbEntity
  8
0
100
AcDbBlockBegin
  2
_D
 70
     0
 10
0.0
 20
0.0
 30
0.0
  3
_D
  1

  0
INSERT
  5
1D9
330
1D6
100
AcDbEntity
  8
RIQUADRO
100
AcDbBlockReference
  2
_ORIGIN
 10
714.2329371334
 20
447.4682277345
 30
0.1
 41
2.1538461538
 42
2.1538461538
 50
0.0
  0
LINE
  5
1DA
330
1D6
100
AcDbEntity
  8
RIQUADRO
100
AcDbLine
 10
714.2329371334
 20
439.6220738884
 30
0.0
 11
714.2329371334
 21
449.6220738884
 31
0.0
  0
LINE
  5
1DB
330
1D6
100
AcDbEntity
  8
RIQUADRO
100
AcDbLine
 10
714.2329371334
 20
439.6220738884
 30
0.0
 11
714.2329371334
 21
429.6220738884
 31
0.0
  0
LINE
  5
1DC
330
1D6
100
AcDbEntity
  8
RIQUADRO
100
AcDbLine
 10
714.2329371334
 20
429.6220738884
 30
0.0
 11
714.2329371334
 21
353.6220738884
 31
0.0
  0
MTEXT
  5
1DD
330
1D6
100
AcDbEntity
  8
RIQUADRO
100
AcDbMText
 10
710.7657132953
 20
449.6220738884
 30
0.1
 40
7.0
 41
0.0
 71
     1
 72
     1
  1
0
  7
SLDTEXTSTYLE0
 11
6.123233995736766E-17
 21
1.0
 31
0.0
 73
     1
 44
1.0
  0
ENDBLK
  5
1D8
330
1D6
100
AcDbEntity
  8
0
100
AcDbBlockEnd
  0
BLOCK
  5
1E1
330
1E0
100
AcDbEntity
  8
0
100
AcDbBlockBegin
  2
_CLOSED
 70
     0
 10
0.0
 20
0.0
 30
0.0
  3
_CLOSED
  1

  0
LINE
  5
1E3
330
1E0
100
AcDbEntity
  8
0
  6
ByBlock
 62
     0
370
    -2
100
AcDbLine
 10
-1.0
 20
0.166667
 30
0.0
 11
0.0
 21
0.0
 31
0.0
  0
LINE
  5
1E4
330
1E0
100
AcDbEntity
  8
0
  6
ByBlock
 62
     0
370
    -2
100
AcDbLine
 10
0.0
 20
0.0
 30
0.0
 11
-1.0
 21
-0.166667
 31
0.0
  0
LINE
  5
1E5
330
1E0
100
AcDbEntity
  8
0
  6
ByBlock
 62
     0
370
    -2
100
AcDbLine
 10
-1.0
 20
0.166667
 30
0.0
 11
-1.0
 21
-0.166667
 31
0.0
  0
LINE
  5
1E6
330
1E0
100
AcDbEntity
  8
0
  6
ByBlock
 62
     0
370
    -2
100
AcDbLine
 10
0.0
 20
0.0
 30
0.0
 11
-1.0
 21
0.0
 31
0.0
  0
ENDBLK
  5
1E2
330
1E0
100
AcDbEntity
  8
0
100
AcDbBlockEnd
  0
BLOCK
  5
1E8
330
1E7
100
AcDbEntity
  8
0
100
AcDbBlockBegin
  2
_D_1
 70
     0
 10
0.0
 20
0.0
 30
0.0
  3
_D_1
  1

  0
INSERT
  5
1EA
330
1E7
100
AcDbEntity
  8
RIQUADRO
100
AcDbBlockReference
  2
_CLOSED
 10
669.6329371334
 20
447.4682277345
 30
0.1
 41
7.0
 42
7.0
 50
180.0
  0
LINE
  5
1EB
330
1E7
100
AcDbEntity
  8
RIQUADRO
100
AcDbLine
 10
669.6329371334
 20
356.5220738884
 30
0.0
 11
669.6329371334
 21
449.6220738884
 31
0.0
  0
LINE
  5
1EC
330
1E7
100
AcDbEntity
  8
RIQUADRO
100
AcDbLine
 10
714.2329371334
 20
447.4682277345
 30
0.0
 11
669.6329371334
 21
447.4682277345
 31
0.0
  0
MTEXT
  5
1ED
330
1E7
100
AcDbEntity
  8
RIQUADRO
100
AcDbMText
 10
666.1657132953
 20
449.6220738884
 30
0.1
 40
7.0
 41
0.0
 71
     1
 72
     1
  1
44,60
  7
SLDTEXTSTYLE0
 11
6.123233995736766E-17
 21
1.0
 31
0.0
 73
     1
 44
1.0
  0
ENDBLK
  5
1E9
330
1E7
100
AcDbEntity
  8
0
100
AcDbBlockEnd
  0
BLOCK
  5
1F0
330
1EF
100
AcDbEntity
  8
0
100
AcDbBlockBegin
  2
_D_2
 70
     0
 10
0.0
 20
0.0
 30
0.0
  3
_D_2
  1

  0
INSERT
  5
1F2
330
1EF
100
AcDbEntity
  8
RIQUADRO
100
AcDbBlockReference
  2
_CLOSED
 10
629.6329371334
 20
447.4682277345
 30
0.1
 41
7.0
 42
7.0
 50
180.0
  0
LINE
  5
1F3
330
1EF
100
AcDbEntity
  8
RIQUADRO
100
AcDbLine
 10
629.6329371334
 20
356.5220738884
 30
0.0
 11
629.6329371334
 21
449.6220738884
 31
0.0
  0
LINE
  5
1F4
330
1EF
100
AcDbEntity
  8
RIQUADRO
100
AcDbLine
 10
669.6329371334
 20
447.4682277345
 30
0.0
 11
629.6329371334
 21
447.4682277345
 31
0.0
  0
MTEXT
  5
1F5
330
1EF
100
AcDbEntity
  8
RIQUADRO
100
AcDbMText
 10
626.1657132953
 20
449.6220738884
 30
0.1
 40
7.0
 41
0.0
 71
     1
 72
     1
  1
84,60
  7
SLDTEXTSTYLE0
 11
6.123233995736766E-17
 21
1.0
 31
0.0
 73
     1
 44
1.0
  0
ENDBLK
  5
1F1
330
1EF
100
AcDbEntity
  8
0
100
AcDbBlockEnd
  0
BLOCK
  5
1F8
330
1F7
100
AcDbEntity
  8
0
100
AcDbBlockBegin
  2
_D_3
 70
     0
 10
0.0
 20
0.0
 30
0.0
  3
_D_3
  1

  0
INSERT
  5
1FA
330
1F7
100
AcDbEntity
  8
RIQUADRO
100
AcDbBlockReference
  2
_CLOSED
 10
507.7719323102
 20
447.4682277345
 30
0.1
 41
7.0
 42
7.0
 50
180.0
  0
LINE
  5
1FB
330
1F7
100
AcDbEntity
  8
RIQUADRO
100
AcDbLine
 10
507.7719323102
 20
385.6220738884
 30
0.0
 11
507.7719323102
 21
449.6220738884
 31
0.0
  0
LINE
  5
1FC
330
1F7
100
AcDbEntity
  8
RIQUADRO
100
AcDbLine
 10
629.6329371334
 20
447.4682277345
 30
0.0
 11
507.7719323102
 21
447.4682277345
 31
0.0
  0
MTEXT
  5
1FD
330
1F7
100
AcDbEntity
  8
RIQUADRO
100
AcDbMText
 10
504.3047084721
 20
449.6220738884
 30
0.1
 40
7.0
 41
0.0
 71
     1
 72
     1
  1
206,46
  7
SLDTEXTSTYLE0
 11
6.123233995736766E-17
 21
1.0
 31
0.0
 73
     1
 44
1.0
  0
ENDBLK
  5
1F9
330
1F7
100
AcDbEntity
  8
0
100
AcDbBlockEnd
  0
BLOCK
  5
200
330
1FF
100
AcDbEntity
  8
0
100
AcDbBlockBegin
  2
_D_4
 70
     0
 10
0.0
 20
0.0
 30
0.0
  3
_D_4
  1

  0
INSERT
  5
202
330
1FF
100
AcDbEntity
  8
RIQUADRO
100
AcDbBlockReference
  2
_CLOSED
 10
484.4329371334
 20
447.4682277345
 30
0.1
 41
7.0
 42
7.0
 50
180.0
  0
LINE
  5
203
330
1FF
100
AcDbEntity
  8
RIQUADRO
100
AcDbLine
 10
484.4329371334
 20
387.6220738884
 30
0.0
 11
484.4329371334
 21
449.6220738884
 31
0.0
  0
LINE
  5
204
330
1FF
100
AcDbEntity
  8
RIQUADRO
100
AcDbLine
 10
507.7719323102
 20
447.4682277345
 30
0.0
 11
484.4329371334
 21
447.4682277345
 31
0.0
  0
MTEXT
  5
205
330
1FF
100
AcDbEntity
  8
RIQUADRO
100
AcDbMText
 10
480.9657132953
 20
449.6220738884
 30
0.1
 40
7.0
 41
0.0
 71
     1
 72
     1
  1
229,80
  7
SLDTEXTSTYLE0
 11
6.123233995736766E-17
 21
1.0
 31
0.0
 73
     1
 44
1.0
  0
ENDBLK
  5
201
330
1FF
100
AcDbEntity
  8
0
100
AcDbBlockEnd
  0
BLOCK
  5
208
330
207
100
AcDbEntity
  8
0
100
AcDbBlockBegin
  2
_D_5
 70
     0
 10
0.0
 20
0.0
 30
0.0
  3
_D_5
  1

  0
INSERT
  5
20A
330
207
100
AcDbEntity
  8
RIQUADRO
100
AcDbBlockReference
  2
_CLOSED
 10
451.2329371334
 20
447.4682277345
 30
0.1
 41
7.0
 42
7.0
 50
180.0
  0
LINE
  5
20B
330
207
100
AcDbEntity
  8
RIQUADRO
100
AcDbLine
 10
451.2329371334
 20
395.5875808731
 30
0.0
 11
451.2329371334
 21
449.6220738884
 31
0.0
  0
LINE
  5
20C
330
207
100
AcDbEntity
  8
RIQUADRO
100
AcDbLine
 10
484.4329371334
 20
447.4682277345
 30
0.0
 11
451.2329371334
 21
447.4682277345
 31
0.0
  0
MTEXT
  5
20D
330
207
100
AcDbEntity
  8
RIQUADRO
100
AcDbMText
 10
447.7657132953
 20
449.6220738884
 30
0.1
 40
7.0
 41
0.0
 71
     1
 72
     1
  1
263
  7
SLDTEXTSTYLE0
 11
6.123233995736766E-17
 21
1.0
 31
0.0
 73
     1
 44
1.0
  0
ENDBLK
  5
209
330
207
100
AcDbEntity
  8
0
100
AcDbBlockEnd
  0
BLOCK
  5
210
330
20F
100
AcDbEntity
  8
0
100
AcDbBlockBegin
  2
_D_6
 70
     0
 10
0.0
 20
0.0
 30
0.0
  3
_D_6
  1

  0
INSERT
  5
212
330
20F
100
AcDbEntity
  8
RIQUADRO
100
AcDbBlockReference
  2
_CLOSED
 10
336.2329371334
 20
447.4682277345
 30
0.1
 41
7.0
 42
7.0
 50
180.0
  0
LINE
  5
213
330
20F
100
AcDbEntity
  8
RIQUADRO
100
AcDbLine
 10
336.2329371334
 20
394.6220738884
 30
0.0
 11
336.2329371334
 21
449.6220738884
 31
0.0
  0
LINE
  5
214
330
20F
100
AcDbEntity
  8
RIQUADRO
100
AcDbLine
 10
451.2329371334
 20
447.4682277345
 30
0.0
 11
336.2329371334
 21
447.4682277345
 31
0.0
  0
MTEXT
  5
215
330
20F
100
AcDbEntity
  8
RIQUADRO
100
AcDbMText
 10
332.7657132953
 20
449.6220738884
 30
0.1
 40
7.0
 41
0.0
 71
     1
 72
     1
  1
378
  7
SLDTEXTSTYLE0
 11
6.123233995736766E-17
 21
1.0
 31
0.0
 73
     1
 44
1.0
  0
ENDBLK
  5
211
330
20F
100
AcDbEntity
  8
0
100
AcDbBlockEnd
  0
BLOCK
  5
218
330
217
100
AcDbEntity
  8
0
100
AcDbBlockBegin
  2
_D_7
 70
     0
 10
0.0
 20
0.0
 30
0.0
  3
_D_7
  1

  0
INSERT
  5
21A
330
217
100
AcDbEntity
  8
RIQUADRO
100
AcDbBlockReference
  2
_CLOSED
 10
729.3034069237
 20
447.4682277345
 30
0.1
 41
7.0
 42
7.0
 50
0.0
  0
LINE
  5
21B
330
217
100
AcDbEntity
  8
RIQUADRO
100
AcDbLine
 10
729.3034069237
 20
439.6220738884
 30
0.0
 11
729.3034069237
 21
449.6220738884
 31
0.0
  0
LINE
  5
21C
330
217
100
AcDbEntity
  8
RIQUADRO
100
AcDbLine
 10
714.2329371334
 20
447.4682277345
 30
0.0
 11
729.3034069237
 21
447.4682277345
 31
0.0
  0
LINE
  5
21D
330
217
100
AcDbEntity
  8
RIQUADRO
100
AcDbLine
 10
729.3034069237
 20
439.6220738884
 30
0.0
 11
718.2329371334
 21
429.6220738884
 31
0.0
  0
LINE
  5
21E
330
217
100
AcDbEntity
  8
RIQUADRO
100
AcDbLine
 10
718.2329371334
 20
429.6220738884
 30
0.0
 11
718.2329371334
 21
350.3220738884
 31
0.0
  0
MTEXT
  5
21F
330
217
100
AcDbEntity
  8
RIQUADRO
100
AcDbMText
 10
725.8361830856
 20
449.6220738884
 30
0.1
 40
7.0
 41
0.0
 71
     1
 72
     1
  1
4
  7
SLDTEXTSTYLE0
 11
6.123233995736766E-17
 21
1.0
 31
0.0
 73
     1
 44
1.0
  0
ENDBLK
  5
219
330
217
100
AcDbEntity
  8
0
100
AcDbBlockEnd
  0
BLOCK
  5
222
330
221
100
AcDbEntity
  8
0
100
AcDbBlockBegin
  2
_D_8
 70
     0
 10
0.0
 20
0.0
 30
0.0
  3
_D_8
  1

  0
INSERT
  5
224
330
221
100
AcDbEntity
  8
RIQUADRO
100
AcDbBlockReference
  2
_CLOSED
 10
749.1824327246
 20
447.4682277345
 30
0.1
 41
7.0
 42
7.0
 50
0.0
  0
LINE
  5
225
330
221
100
AcDbEntity
  8
RIQUADRO
100
AcDbLine
 10
749.1824327246
 20
439.6220738884
 30
0.0
 11
749.1824327246
 21
449.6220738884
 31
0.0
  0
LINE
  5
226
330
221
100
AcDbEntity
  8
RIQUADRO
100
AcDbLine
 10
729.3034069237
 20
447.4682277345
 30
0.0
 11
749.1824327246
 21
447.4682277345
 31
0.0
  0
LINE
  5
227
330
221
100
AcDbEntity
  8
RIQUADRO
100
AcDbLine
 10
749.1824327246
 20
439.6220738884
 30
0.0
 11
721.8329371334
 21
429.6220738884
 31
0.0
  0
LINE
  5
228
330
221
100
AcDbEntity
  8
RIQUADRO
100
AcDbLine
 10
721.8329371334
 20
429.6220738884
 30
0.0
 11
721.8329371334
 21
348.3720738884
 31
0.0
  0
MTEXT
  5
229
330
221
100
AcDbEntity
  8
RIQUADRO
100
AcDbMText
 10
745.7152088865
 20
449.6220738884
 30
0.1
 40
7.0
 41
0.0
 71
     1
 72
     1
  1
7,60
  7
SLDTEXTSTYLE0
 11
6.123233995736766E-17
 21
1.0
 31
0.0
 73
     1
 44
1.0
  0
ENDBLK
  5
223
330
221
100
AcDbEntity
  8
0
100
AcDbBlockEnd
  0
BLOCK
  5
22D
330
22C
100
AcDbEntity
  8
0
100
AcDbBlockBegin
  2
_D_9
 70
     0
 10
0.0
 20
0.0
 30
0.0
  3
_D_9
  1

  0
INSERT
  5
22F
330
22C
100
AcDbEntity
  8
RIQUADRO
100
AcDbBlockReference
  2
_CLOSED
 10
765.8329371334
 20
348.3220738884
 30
0.1
 41
7.0
 42
7.0
 50
90.0
  0
INSERT
  5
230
330
22C
100
AcDbEntity
  8
RIQUADRO
100
AcDbBlockReference
  2
_CLOSED
 10
765.8329371334
 20
322.9220738884
 30
0.1
 41
7.0
 42
7.0
 50
270.0
  0
LINE
  5
231
330
22C
100
AcDbEntity
  8
RIQUADRO
100
AcDbLine
 10
720.2329371334
 20
348.3220738884
 30
0.0
 11
767.8329371334
 21
348.3220738884
 31
0.0
  0
LINE
  5
232
330
22C
100
AcDbEntity
  8
RIQUADRO
100
AcDbLine
 10
720.2329371334
 20
322.9220738884
 30
0.0
 11
767.8329371334
 21
322.9220738884
 31
0.0
  0
LINE
  5
233
330
22C
100
AcDbEntity
  8
RIQUADRO
100
AcDbLine
 10
765.8329371334
 20
348.3220738884
 30
0.0
 11
765.8329371334
 21
322.9220738884
 31
0.0
  0
LINE
  5
234
330
22C
100
AcDbEntity
  8
RIQUADRO
100
AcDbLine
 10
765.8329371334
 20
322.9220738884
 30
0.0
 11
765.8329371334
 21
242.1694647374
 31
0.0
  0
MTEXT
  5
235
330
22C
100
AcDbEntity
  8
RIQUADRO
100
AcDbMText
 10
734.4775177061
 20
245.6784590932
 30
0.1
 40
7.0
 41
0.0
 71
     1
 72
     1
  1
C Mount
  7
SLDTEXTSTYLE0
 11
-7.044195017643634E-15
 21
1.0
 31
0.0
 73
     1
 44
1.0
  0
MTEXT
  5
236
330
22C
100
AcDbEntity
  8
RIQUADRO
100
AcDbMText
 10
745.5900176882
 20
248.4735984208
 30
0.1
 40
7.0
 41
0.0
 71
     1
 72
     1
  1
1/32 TPI
  7
SLDTEXTSTYLE0
 11
-7.044195017643634E-15
 21
1.0
 31
0.0
 73
     1
 44
1.0
  0
MTEXT
  5
237
330
22C
100
AcDbEntity
  8
RIQUADRO
100
AcDbMText
 10
756.7025176703
 20
242.1694647374
 30
0.1
 40
7.0
 41
0.0
 71
     1
 72
     1
  1
(
  7
SLDTEXTSTYLE0
 11
-7.044195017643634E-15
 21
1.0
 31
0.0
 73
     1
 44
1.0
  0
MTEXT
  5
238
330
22C
100
AcDbEntity
  8
RIQUADRO
100
AcDbMText
 10
756.8094620236
 20
245.6111314559
 30
0.1
 40
7.0
 41
0.0
 71
     1
 72
     1
  1
%%c
  7
SLDTEXTSTYLE0
 11
-7.044195017643634E-15
 21
1.0
 31
0.0
 73
     1
 44
1.0
  0
MTEXT
  5
239
330
22C
100
AcDbEntity
  8
RIQUADRO
100
AcDbMText
 10
756.7025176703
 20
256.1680067183
 30
0.1
 40
7.0
 41
0.0
 71
     1
 72
     1
  1
25,40
  7
SLDTEXTSTYLE0
 11
-7.044195017643634E-15
 21
1.0
 31
0.0
 73
     1
 44
1.0
  0
MTEXT
  5
23A
330
22C
100
AcDbEntity
  8
RIQUADRO
100
AcDbMText
 10
756.7025176703
 20
285.1305071117
 30
0.1
 40
7.0
 41
0.0
 71
     1
 72
     1
  1
)
  7
SLDTEXTSTYLE0
 11
-7.044195017643634E-15
 21
1.0
 31
0.0
 73
     1
 44
1.0
  0
ENDBLK
  5
22E
330
22C
100
AcDbEntity
  8
0
100
AcDbBlockEnd
  0
BLOCK
  5
23E
330
23D
100
AcDbEntity
  8
0
100
AcDbBlockBegin
  2
_D_10
 70
     0
 10
0.0
 20
0.0
 30
0.0
  3
_D_10
  1

  0
INSERT
  5
240
330
23D
100
AcDbEntity
  8
RIQUADRO
100
AcDbBlockReference
  2
_CLOSED
 10
292.2329371334
 20
393.6220738884
 30
0.1
 41
7.0
 42
7.0
 50
270.0
  0
INSERT
  5
241
330
23D
100
AcDbEntity
  8
RIQUADRO
100
AcDbBlockReference
  2
_CLOSED
 10
292.2329371334
 20
277.6220738884
 30
0.1
 41
7.0
 42
7.0
 50
90.0
  0
LINE
  5
242
330
23D
100
AcDbEntity
  8
RIQUADRO
100
AcDbLine
 10
335.2329371334
 20
393.6220738884
 30
0.0
 11
290.2329371334
 21
393.6220738884
 31
0.0
  0
LINE
  5
243
330
23D
100
AcDbEntity
  8
RIQUADRO
100
AcDbLine
 10
335.2329371334
 20
277.6220738884
 30
0.0
 11
290.2329371334
 21
277.6220738884
 31
0.0
  0
LINE
  5
244
330
23D
100
AcDbEntity
  8
RIQUADRO
100
AcDbLine
 10
292.2329371334
 20
393.6220738884
 30
0.0
 11
292.2329371334
 21
407.0836123499
 31
0.0
  0
LINE
  5
245
330
23D
100
AcDbEntity
  8
RIQUADRO
100
AcDbLine
 10
292.2329371334
 20
393.6220738884
 30
0.0
 11
292.2329371334
 21
277.6220738884
 31
0.0
  0
LINE
  5
246
330
23D
100
AcDbEntity
  8
RIQUADRO
100
AcDbLine
 10
292.2329371334
 20
277.6220738884
 30
0.0
 11
292.2329371334
 21
264.1605354268
 31
0.0
  0
MTEXT
  5
247
330
23D
100
AcDbEntity
  8
RIQUADRO
100
AcDbMText
 10
272.0969629728
 20
302.5019787028
 30
0.1
 40
7.0
 41
0.0
 71
     1
 72
     1
  1
%%c
  7
SLDTEXTSTYLE0
 11
-7.044195017643634E-15
 21
1.0
 31
0.0
 73
     1
 44
1.0
  0
MTEXT
  5
248
330
23D
100
AcDbEntity
  8
RIQUADRO
100
AcDbMText
 10
271.9900186195
 20
313.0588534995
 30
0.1
 40
7.0
 41
0.0
 71
     1
 72
     1
  1
116
  7
SLDTEXTSTYLE0
 11
-7.044195017643634E-15
 21
1.0
 31
0.0
 73
     1
 44
1.0
  0
MTEXT
  5
249
330
23D
100
AcDbEntity
  8
RIQUADRO
100
AcDbMText
 10
271.9900186195
 20
336.8880214765
 30
0.1
 40
7.0
 41
0.0
 71
     1
 72
     1
  1
h8
  7
SLDTEXTSTYLE0
 11
-7.044195017643634E-15
 21
1.0
 31
0.0
 73
     1
 44
1.0
  0
MTEXT
  5
24A
330
23D
100
AcDbEntity
  8
RIQUADRO
100
AcDbMText
 10
266.2502688141
 20
352.6010758535
 30
0.1
 40
5.6
 41
0.0
 71
     1
 72
     1
  1

  7
SLDTEXTSTYLE0
 11
-7.044195017643634E-15
 21
1.0
 31
0.0
 73
     1
 44
1.0
  0
MTEXT
  5
24B
330
23D
100
AcDbEntity
  8
RIQUADRO
100
AcDbMText
 10
273.4913800628
 20
350.2949647381
 30
0.1
 40
5.6
 41
0.0
 71
     1
 72
     1
  1
-
  7
SLDTEXTSTYLE0
 11
-7.044195017643634E-15
 21
1.0
 31
0.0
 73
     1
 44
1.0
  0
MTEXT
  5
24C
330
23D
100
AcDbEntity
  8
RIQUADRO
100
AcDbMText
 10
266.2502688141
 20
352.7760751321
 30
0.1
 40
5.6
 41
0.0
 71
     1
 72
     1
  1
0
  7
SLDTEXTSTYLE0
 11
-7.044195017643634E-15
 21
1.0
 31
0.0
 73
     1
 44
1.0
  0
MTEXT
  5
24D
330
23D
100
AcDbEntity
  8
RIQUADRO
100
AcDbMText
 10
273.4913800628
 20
352.7760751321
 30
0.1
 40
5.6
 41
0.0
 71
     1
 72
     1
  1
0,05
  7
SLDTEXTSTYLE0
 11
-7.044195017643634E-15
 21
1.0
 31
0.0
 73
     1
 44
1.0
  0
MTEXT
  5
24E
330
23D
100
AcDbEntity
  8
RIQUADRO
100
AcDbMText
 10
283.2094633042
 20
290.1773549392
 30
0.1
 40
7.0
 41
0.0
 71
     1
 72
     1
  1
Clamping Diameter
  7
SLDTEXTSTYLE0
 11
-7.044195017643634E-15
 21
1.0
 31
0.0
 73
     1
 44
1.0
  0
ENDBLK
  5
23F
330
23D
100
AcDbEntity
  8
0
100
AcDbBlockEnd
  0
BLOCK
  5
252
330
251
100
AcDbEntity
  8
0
100
AcDbBlockBegin
  2
_D_11
 70
     0
 10
0.0
 20
0.0
 30
0.0
  3
_D_11
  1

  0
INSERT
  5
254
330
251
100
AcDbEntity
  8
RIQUADRO
100
AcDbBlockReference
  2
_CLOSED
 10
641.3884680284
 20
354.5220738884
 30
0.1
 41
7.0
 42
7.0
 50
90.0
  0
INSERT
  5
255
330
251
100
AcDbEntity
  8
RIQUADRO
100
AcDbBlockReference
  2
_CLOSED
 10
641.3884680284
 20
316.7220738884
 30
0.1
 41
7.0
 42
7.0
 50
270.0
  0
LINE
  5
256
330
251
100
AcDbEntity
  8
RIQUADRO
100
AcDbLine
 10
641.3884680284
 20
354.5220738884
 30
0.0
 11
641.3884680284
 21
316.7220738884
 31
0.0
  0
LINE
  5
257
330
251
100
AcDbEntity
  8
RIQUADRO
100
AcDbLine
 10
641.3884680284
 20
316.7220738884
 30
0.0
 11
641.3884680284
 21
200.9192906614
 31
0.0
  0
MTEXT
  5
258
330
251
100
AcDbEntity
  8
RIQUADRO
100
AcDbMText
 10
621.2524938678
 20
209.3647472854
 30
0.1
 40
7.0
 41
0.0
 71
     1
 72
     1
  1
%%c
  7
SLDTEXTSTYLE0
 11
-7.044195017643634E-15
 21
1.0
 31
0.0
 73
     1
 44
1.0
  0
MTEXT
  5
259
330
251
100
AcDbEntity
  8
RIQUADRO
100
AcDbMText
 10
621.1455495145
 20
219.9216220822
 30
0.1
 40
7.0
 41
0.0
 71
     1
 72
     1
  1
37,80
  7
SLDTEXTSTYLE0
 11
-7.044195017643634E-15
 21
1.0
 31
0.0
 73
     1
 44
1.0
  0
MTEXT
  5
25A
330
251
100
AcDbEntity
  8
RIQUADRO
100
AcDbMText
 10
621.1455495145
 20
251.5091243382
 30
0.1
 40
7.0
 41
0.0
 71
     1
 72
     1
  1
h8
  7
SLDTEXTSTYLE0
 11
-7.044195017643634E-15
 21
1.0
 31
0.0
 73
     1
 44
1.0
  0
MTEXT
  5
25B
330
251
100
AcDbEntity
  8
RIQUADRO
100
AcDbMText
 10
615.4057997091
 20
267.2221787152
 30
0.1
 40
5.6
 41
0.0
 71
     1
 72
     1
  1

  7
SLDTEXTSTYLE0
 11
-7.044195017643634E-15
 21
1.0
 31
0.0
 73
     1
 44
1.0
  0
MTEXT
  5
25C
330
251
100
AcDbEntity
  8
RIQUADRO
100
AcDbMText
 10
622.6469109578
 20
264.9160675998
 30
0.1
 40
5.6
 41
0.0
 71
     1
 72
     1
  1
-
  7
SLDTEXTSTYLE0
 11
-7.044195017643634E-15
 21
1.0
 31
0.0
 73
     1
 44
1.0
  0
MTEXT
  5
25D
330
251
100
AcDbEntity
  8
RIQUADRO
100
AcDbMText
 10
615.4057997091
 20
267.3971779938
 30
0.1
 40
5.6
 41
0.0
 71
     1
 72
     1
  1
0
  7
SLDTEXTSTYLE0
 11
-7.044195017643634E-15
 21
1.0
 31
0.0
 73
     1
 44
1.0
  0
MTEXT
  5
25E
330
251
100
AcDbEntity
  8
RIQUADRO
100
AcDbMText
 10
622.6469109578
 20
267.3971779938
 30
0.1
 40
5.6
 41
0.0
 71
     1
 72
     1
  1
0,04
  7
SLDTEXTSTYLE0
 11
-7.044195017643634E-15
 21
1.0
 31
0.0
 73
     1
 44
1.0
  0
MTEXT
  5
25F
330
251
100
AcDbEntity
  8
RIQUADRO
100
AcDbMText
 10
632.3649941992
 20
200.9192906614
 30
0.1
 40
7.0
 41
0.0
 71
     1
 72
     1
  1
Clamping Diameter
  7
SLDTEXTSTYLE0
 11
-7.044195017643634E-15
 21
1.0
 31
0.0
 73
     1
 44
1.0
  0
ENDBLK
  5
253
330
251
100
AcDbEntity
  8
0
100
AcDbBlockEnd
  0
BLOCK
  5
2AA
330
2A9
100
AcDbEntity
  8
0
100
AcDbBlockBegin
  2
_D_12
 70
     0
 10
0.0
 20
0.0
 30
0.0
  3
_D_12
  1

  0
ARC
  5
2AC
330
2A9
100
AcDbEntity
  8
RIQUADRO
100
AcDbCircle
 10
162.9005348999
 20
335.6220738884
 30
0.0
 40
58.00000000000001
100
AcDbArc
 50
358.0250659891
 51
162.0011742748
  0
INSERT
  5
2AD
330
2A9
100
AcDbEntity
  8
RIQUADRO
100
AcDbBlockReference
  2
_CLOSED
 10
220.9005348999
 20
335.6220738884
 30
-187.2
 41
7.0
 42
7.0
 50
180.0
  0
INSERT
  5
2AE
330
2A9
100
AcDbEntity
  8
RIQUADRO
100
AcDbBlockReference
  2
_CLOSED
 10
104.9005348999
 20
335.6220738884
 30
-187.2
 41
7.0
 42
7.0
 50
0.0
  0
LINE
  5
2AF
330
2A9
100
AcDbEntity
  8
RIQUADRO
100
AcDbLine
 10
104.9005348999
 20
335.6220738884
 30
0.0
 11
52.3326958978
 21
335.6220738884
 31
0.0
  0
LINE
  5
2B0
330
2A9
100
AcDbEntity
  8
RIQUADRO
100
AcDbLine
 10
220.9005348999
 20
335.6220738884
 30
0.0
 11
234.3620733614
 21
335.6220738884
 31
0.0
  0
LINE
  5
2B1
330
2A9
100
AcDbEntity
  8
RIQUADRO
100
AcDbLine
 10
104.9005348999
 20
335.6220738884
 30
0.0
 11
220.9005348999
 21
335.6220738884
 31
0.0
  0
MTEXT
  5
2B2
330
2A9
100
AcDbEntity
  8
RIQUADRO
100
AcDbMText
 10
52.3326958978
 20
344.6357631611
 30
-187.2
 40
7.0
 41
0.0
 71
     1
 72
     1
  1
%%c
  7
SLDTEXTSTYLE0
 73
     1
 44
1.0
  0
MTEXT
  5
2B3
330
2A9
100
AcDbEntity
  8
RIQUADRO
100
AcDbMText
 10
62.8895706946
 20
344.7427075145
 30
-187.2
 40
7.0
 41
0.0
 71
     1
 72
     1
  1
116
  7
SLDTEXTSTYLE0
 73
     1
 44
1.0
  0
ENDBLK
  5
2AB
330
2A9
100
AcDbEntity
  8
0
100
AcDbBlockEnd
  0
ENDSEC
  0
SECTION
  2
ENTITIES
  0
LINE
  5
4E
330
1F
100
AcDbEntity
  8
RIQUADRO
100
AcDbLine
 10
809.2129391868
 20
296.8377978596
 30
0.0
 11
819.2129391868
 21
296.8377978596
 31
0.0
  0
LINE
  5
4F
330
1F
100
AcDbEntity
  8
RIQUADRO
100
AcDbLine
 10
552.5893539679
 20
81.8377840739
 30
0.0
 11
552.5893539679
 21
39.8377840739
 31
0.0
  0
LINE
  5
50
330
1F
100
AcDbEntity
  8
RIQUADRO
100
AcDbLine
 10
619.7284223383
 20
72.8377840739
 30
0.0
 11
619.7284223383
 21
39.8377840739
 31
0.0
  0
LINE
  5
51
330
1F
100
AcDbEntity
  8
CARTIGLIO
100
AcDbLine
 10
809.2129391868
 20
149.8377840739
 30
0.0
 11
449.6357341324
 21
149.8377840739
 31
0.0
  0
LINE
  5
52
330
1F
100
AcDbEntity
  8
CARTIGLIO
100
AcDbLine
 10
449.6357341324
 20
149.8377840739
 30
0.0
 11
449.6357341324
 21
29.8377840739
 31
0.0
  0
LINE
  5
53
330
1F
100
AcDbEntity
  8
CARTIGLIO
100
AcDbLine
 10
809.6357341324
 20
115.8377840739
 30
0.0
 11
449.6357341324
 21
115.8377840739
 31
0.0
  0
LINE
  5
54
330
1F
100
AcDbEntity
  8
CARTIGLIO
100
AcDbLine
 10
809.6357341324
 20
39.8377840739
 30
0.0
 11
449.6357341324
 21
39.8377840739
 31
0.0
  0
LINE
  5
55
330
1F
100
AcDbEntity
  8
CARTIGLIO
100
AcDbLine
 10
809.6357341324
 20
50.8377840739
 30
0.0
 11
669.5841661778
 21
50.8377840739
 31
0.0
  0
LINE
  5
56
330
1F
100
AcDbEntity
  8
CARTIGLIO
100
AcDbLine
 10
669.5841661778
 20
149.8377840739
 30
0.0
 11
669.5841661778
 21
39.8377840739
 31
0.0
  0
LINE
  5
57
330
1F
100
AcDbEntity
  8
RIQUADRO
  6
Continuous
 62
     7
370
    30
100
AcDbLine
 10
829.2129391868
 20
9.8377978596
 30
0.0
 11
809.2129391868
 21
9.8377978596
 31
0.0
  0
LINE
  5
58
330
1F
100
AcDbEntity
  8
RIQUADRO
  6
Continuous
 62
     7
370
    30
100
AcDbLine
 10
829.2129391868
 20
9.8377978596
 30
0.0
 11
829.2129391868
 21
29.8377978596
 31
0.0
  0
LINE
  5
59
330
1F
100
AcDbEntity
  8
CONTORNO
  6
Continuous
 62
     7
370
    30
100
AcDbLine
 10
829.2129391868
 20
583.8377978596
 30
0.0
 11
829.2129391868
 21
563.8377978596
 31
0.0
  0
LINE
  5
5A
330
1F
100
AcDbEntity
  8
CONTORNO
  6
Continuous
 62
     7
370
    30
100
AcDbLine
 10
829.2129391868
 20
583.8377978596
 30
0.0
 11
809.2129391868
 21
583.8377978596
 31
0.0
  0
LINE
  5
5B
330
1F
100
AcDbEntity
  8
RIQUADRO
100
AcDbLine
 10
19.2129391868
 20
573.8377978596
 30
0.0
 11
19.2129391868
 21
19.8377978596
 31
0.0
  0
LINE
  5
5C
330
1F
100
AcDbEntity
  8
RIQUADRO
100
AcDbLine
 10
19.2129391868
 20
19.8377978596
 30
0.0
 11
819.2129391868
 21
19.8377978596
 31
0.0
  0
LINE
  5
5D
330
1F
100
AcDbEntity
  8
RIQUADRO
100
AcDbLine
 10
819.2129391868
 20
573.8377978596
 30
0.0
 11
819.2129391868
 21
19.8377978596
 31
0.0
  0
LINE
  5
5E
330
1F
100
AcDbEntity
  8
RIQUADRO
100
AcDbLine
 10
19.2129391868
 20
573.8377978596
 30
0.0
 11
819.2129391868
 21
573.8377978596
 31
0.0
  0
LINE
  5
5F
330
1F
100
AcDbEntity
  8
RIQUADRO
100
AcDbLine
 10
29.2129391868
 20
573.8377978596
 30
0.0
 11
29.2129391868
 21
19.8377978596
 31
0.0
  0
LINE
  5
60
330
1F
100
AcDbEntity
  8
CARTIGLIO
100
AcDbLine
 10
449.2129391868
 20
29.8377978596
 30
0.0
 11
819.2129391868
 21
29.8377978596
 31
0.0
  0
LINE
  5
61
330
1F
100
AcDbEntity
  8
RIQUADRO
100
AcDbLine
 10
809.2129391868
 20
573.8377978596
 30
0.0
 11
809.2129391868
 21
19.8377978596
 31
0.0
  0
LINE
  5
62
330
1F
100
AcDbEntity
  8
RIQUADRO
100
AcDbLine
 10
19.2129391868
 20
563.8377978596
 30
0.0
 11
819.2129391868
 21
563.8377978596
 31
0.0
  0
LINE
  5
63
330
1F
100
AcDbEntity
  8
CARTIGLIO
100
AcDbLine
 10
809.6357341324
 20
81.8377840739
 30
0.0
 11
449.6357341324
 21
81.8377840739
 31
0.0
  0
LINE
  5
64
330
1F
100
AcDbEntity
  8
CARTIGLIO
100
AcDbLine
 10
790.2350662692
 20
81.8377840739
 30
0.0
 11
790.2350662692
 21
50.8377840739
 31
0.0
  0
LINE
  5
65
330
1F
100
AcDbEntity
  8
RIQUADRO
100
AcDbLine
 10
622.0550237175
 20
149.8377840739
 30
0.0
 11
622.0550237175
 21
115.8377840739
 31
0.0
  0
LINE
  5
66
330
1F
100
AcDbEntity
  8
CARTIGLIO
100
AcDbLine
 10
809.2129391868
 20
149.8377840739
 30
0.0
 11
809.2129391868
 21
29.8377978596
 31
0.0
  0
LINE
  5
67
330
1F
100
AcDbEntity
  8
PROIEZ
  6
CENTERX2
100
AcDbLine
 10
645.8551386583
 20
132.4235227835
 30
0.0
 11
668.6236624602
 21
132.4235227835
 31
0.0
  0
LINE
  5
68
330
1F
100
AcDbEntity
  8
PROIEZ
  6
CENTERX2
100
AcDbLine
 10
657.2394005592
 20
143.8077846844
 30
0.0
 11
657.2394005592
 21
121.0392608825
 31
0.0
  0
LINE
  5
69
330
1F
100
AcDbEntity
  8
PROIEZ
  6
Continuous
 62
    16
370
    15
100
AcDbLine
 10
639.1654070816
 20
124.0300677904
 30
0.0
 11
639.1654070816
 21
140.8169777766
 31
0.0
  0
LINE
  5
6A
330
1F
100
AcDbEntity
  8
PROIEZ
  6
CENTERX2
100
AcDbLine
 10
641.8210872074
 20
132.4235227835
 30
0.0
 11
625.1654070816
 21
132.4235227835
 31
0.0
  0
LINE
  5
6B
330
1F
100
AcDbEntity
  8
PROIEZ
  6
Continuous
 62
    16
370
    15
100
AcDbLine
 10
625.1654070816
 20
128.0300677904
 30
0.0
 11
625.1654070816
 21
136.8169777766
 31
0.0
  0
LINE
  5
6C
330
1F
100
AcDbEntity
  8
CARTIGLIO
100
AcDbLine
 10
809.2129391868
 20
149.8377978596
 30
0.0
 11
809.2129391868
 21
29.8377978596
 31
0.0
  0
LINE
  5
6D
330
1F
100
AcDbEntity
  8
PROIEZ
100
AcDbLine
 10
625.1654070816
 20
128.0300677904
 30
0.0
 11
639.1654070816
 21
124.0300677904
 31
0.0
  0
LINE
  5
6E
330
1F
100
AcDbEntity
  8
PROIEZ
  6
Continuous
 62
    16
370
    15
100
AcDbLine
 10
625.1654070816
 20
136.8169777766
 30
0.0
 11
639.1654070816
 21
140.8169777766
 31
0.0
  0
LINE
  5
6F
330
1F
100
AcDbEntity
  8
CARTIGLIO
100
AcDbLine
 10
669.5841661778
 20
134.7398021509
 30
0.0
 11
809.6357341324
 21
134.7398021509
 31
0.0
  0
LINE
  5
70
330
1F
100
AcDbEntity
  8
CONTORNO
  6
Continuous
 62
     7
370
    30
100
AcDbLine
 10
9.2129391868
 20
9.8377978596
 30
0.0
 11
9.2129391868
 21
29.8377978596
 31
0.0
  0
LINE
  5
71
330
1F
100
AcDbEntity
  8
CONTORNO
  6
Continuous
 62
     7
370
    30
100
AcDbLine
 10
9.2129391868
 20
9.8377978596
 30
0.0
 11
29.2129391868
 21
9.8377978596
 31
0.0
  0
LINE
  5
72
330
1F
100
AcDbEntity
  8
CARTIGLIO
100
AcDbLine
 10
622.0550237175
 20
132.8377840739
 30
0.0
 11
449.6357341324
 21
132.8377840739
 31
0.0
  0
LINE
  5
73
330
1F
100
AcDbEntity
  8
CARTIGLIO
100
AcDbLine
 10
601.6357341324
 20
115.8377840739
 30
0.0
 11
601.6357341324
 21
81.8377840739
 31
0.0
  0
LINE
  5
74
330
1F
100
AcDbEntity
  8
CARTIGLIO
100
AcDbLine
 10
601.6357341324
 20
98.8377840739
 30
0.0
 11
669.5841661778
 21
98.8377840739
 31
0.0
  0
LINE
  5
75
330
1F
100
AcDbEntity
  8
CARTIGLIO
100
AcDbLine
 10
643.8491384776
 20
115.8377840739
 30
0.0
 11
643.8491384776
 21
81.8377840739
 31
0.0
  0
LINE
  5
76
330
1F
100
AcDbEntity
  8
CARTIGLIO
100
AcDbLine
 10
601.6357341324
 20
101.8377840739
 30
0.0
 11
449.6357341324
 21
101.8377840739
 31
0.0
  0
LINE
  5
77
330
1F
100
AcDbEntity
  8
CARTIGLIO
100
AcDbLine
 10
601.6357341324
 20
89.8377840739
 30
0.0
 11
449.6357341324
 21
89.8377840739
 31
0.0
  0
LINE
  5
78
330
1F
100
AcDbEntity
  8
CARTIGLIO
100
AcDbLine
 10
468.6357341324
 20
101.8377840739
 30
0.0
 11
468.6357341324
 21
81.8377840739
 31
0.0
  0
LINE
  5
79
330
1F
100
AcDbEntity
  8
CARTIGLIO
100
AcDbLine
 10
487.6357341324
 20
101.8377840739
 30
0.0
 11
487.6357341324
 21
81.8377840739
 31
0.0
  0
LINE
  5
7A
330
1F
100
AcDbEntity
  8
CARTIGLIO
100
AcDbLine
 10
506.6357341324
 20
101.8377840739
 30
0.0
 11
506.6357341324
 21
81.8377840739
 31
0.0
  0
LINE
  5
7B
330
1F
100
AcDbEntity
  8
CARTIGLIO
100
AcDbLine
 10
525.6357341324
 20
101.8377840739
 30
0.0
 11
525.6357341324
 21
81.8377840739
 31
0.0
  0
LINE
  5
7C
330
1F
100
AcDbEntity
  8
CARTIGLIO
100
AcDbLine
 10
544.6357341324
 20
101.8377840739
 30
0.0
 11
544.6357341324
 21
81.8377840739
 31
0.0
  0
LINE
  5
7D
330
1F
100
AcDbEntity
  8
CARTIGLIO
100
AcDbLine
 10
563.6357341324
 20
101.8377840739
 30
0.0
 11
563.6357341324
 21
81.8377840739
 31
0.0
  0
LINE
  5
7E
330
1F
100
AcDbEntity
  8
CARTIGLIO
100
AcDbLine
 10
582.6357341324
 20
101.8377840739
 30
0.0
 11
582.6357341324
 21
39.8377840739
 31
0.0
  0
LINE
  5
7F
330
1F
100
AcDbEntity
  8
CARTIGLIO
100
AcDbLine
 10
449.6357341324
 20
108.8377840739
 30
0.0
 11
601.6357341324
 21
108.8377840739
 31
0.0
  0
LINE
  5
80
330
1F
100
AcDbEntity
  8
CARTIGLIO
100
AcDbLine
 10
569.6088744917
 20
115.8377840739
 30
0.0
 11
569.6088744917
 21
101.8377840739
 31
0.0
  0
LINE
  5
81
330
1F
100
AcDbEntity
  8
CARTIGLIO
100
AcDbLine
 10
587.1851658392
 20
115.8377840739
 30
0.0
 11
587.1851658392
 21
101.8377840739
 31
0.0
  0
LINE
  5
82
330
1F
100
AcDbEntity
  8
CARTIGLIO
100
AcDbLine
 10
669.5841661778
 20
50.8377840739
 30
0.0
 11
552.5893539679
 21
50.8377840739
 31
0.0
  0
LINE
  5
83
330
1F
100
AcDbEntity
  8
CARTIGLIO
100
AcDbLine
 10
669.5841661778
 20
61.8377840739
 30
0.0
 11
552.5893539679
 21
61.8377840739
 31
0.0
  0
LINE
  5
84
330
1F
100
AcDbEntity
  8
CARTIGLIO
100
AcDbLine
 10
669.5841661778
 20
72.8377840739
 30
0.0
 11
552.5893539679
 21
72.8377840739
 31
0.0
  0
LINE
  5
85
330
1F
100
AcDbEntity
  8
CARTIGLIO
100
AcDbLine
 10
752.5060410189
 20
134.7398021509
 30
0.0
 11
752.5060410189
 21
149.8377840739
 31
0.0
  0
LINE
  5
86
330
1F
100
AcDbEntity
  8
RIQUADRO
100
AcDbLine
 10
419.2129391868
 20
29.8377978596
 30
0.0
 11
419.2129391868
 21
39.8377978596
 31
0.0
  0
LINE
  5
87
330
1F
100
AcDbEntity
  8
RIQUADRO
100
AcDbLine
 10
126.7129391868
 20
573.8377978596
 30
0.0
 11
126.7129391868
 21
563.8377978596
 31
0.0
  0
LINE
  5
88
330
1F
100
AcDbEntity
  8
RIQUADRO
100
AcDbLine
 10
224.2129391868
 20
573.8377978596
 30
0.0
 11
224.2129391868
 21
563.8377978596
 31
0.0
  0
LINE
  5
89
330
1F
100
AcDbEntity
  8
RIQUADRO
100
AcDbLine
 10
321.7129391868
 20
573.8377978596
 30
0.0
 11
321.7129391868
 21
563.8377978596
 31
0.0
  0
LINE
  5
8A
330
1F
100
AcDbEntity
  8
CONTORNO
  6
Continuous
 62
     7
370
    30
100
AcDbLine
 10
9.2129391868
 20
583.8377978596
 30
0.0
 11
29.2129391868
 21
583.8377978596
 31
0.0
  0
LINE
  5
8B
330
1F
100
AcDbEntity
  8
RIQUADRO
100
AcDbLine
 10
29.2129391868
 20
163.3377978596
 30
0.0
 11
19.2129391868
 21
163.3377978596
 31
0.0
  0
LINE
  5
8C
330
1F
100
AcDbEntity
  8
TABELLA_REV
100
AcDbLine
 10
809.2129391868
 20
521.8377978596
 30
0.0
 11
449.2129391868
 21
521.8377978596
 31
0.0
  0
LINE
  5
8D
330
1F
100
AcDbEntity
  8
CONTORNO
  6
Continuous
 62
     7
370
    30
100
AcDbLine
 10
9.2129391868
 20
583.8377978596
 30
0.0
 11
9.2129391868
 21
563.8377978596
 31
0.0
  0
LINE
  5
8E
330
1F
100
AcDbEntity
  8
CONTORNO
100
AcDbLine
 10
29.2129391868
 20
563.8377978596
 30
0.0
 11
809.2129391868
 21
563.8377978596
 31
0.0
  0
LINE
  5
8F
330
1F
100
AcDbEntity
  8
RIQUADRO
100
AcDbLine
 10
29.2129391868
 20
430.3377978596
 30
0.0
 11
19.2129391868
 21
430.3377978596
 31
0.0
  0
LINE
  5
90
330
1F
100
AcDbEntity
  8
RIQUADRO
100
AcDbLine
 10
809.2129391868
 20
163.3377978596
 30
0.0
 11
819.2129391868
 21
163.3377978596
 31
0.0
  0
LINE
  5
91
330
1F
100
AcDbEntity
  8
RIQUADRO
100
AcDbLine
 10
19.2129391868
 20
296.8377978596
 30
0.0
 11
29.2129391868
 21
296.8377978596
 31
0.0
  0
LINE
  5
92
330
1F
100
AcDbEntity
  8
RIQUADRO
100
AcDbLine
 10
809.2129391868
 20
430.3377978596
 30
0.0
 11
819.2129391868
 21
430.3377978596
 31
0.0
  0
LINE
  5
93
330
1F
100
AcDbEntity
  8
CONTORNO
100
AcDbLine
 10
809.2129391868
 20
563.8377978596
 30
0.0
 11
809.2129391868
 21
29.8377978596
 31
0.0
  0
LINE
  5
94
330
1F
100
AcDbEntity
  8
CONTORNO
100
AcDbLine
 10
809.2129391868
 20
29.8377978596
 30
0.0
 11
29.2129391868
 21
29.8377978596
 31
0.0
  0
LINE
  5
95
330
1F
100
AcDbEntity
  8
CONTORNO
100
AcDbLine
 10
29.2129391868
 20
29.8377978596
 30
0.0
 11
29.2129391868
 21
563.8377978596
 31
0.0
  0
LINE
  5
96
330
1F
100
AcDbEntity
  8
RIQUADRO
100
AcDbLine
 10
419.2129391868
 20
573.8377978596
 30
0.0
 11
419.2129391868
 21
553.8377978596
 31
0.0
  0
LINE
  5
97
330
1F
100
AcDbEntity
  8
RIQUADRO
100
AcDbLine
 10
516.7129391868
 20
573.8377978596
 30
0.0
 11
516.7129391868
 21
563.8377978596
 31
0.0
  0
LINE
  5
98
330
1F
100
AcDbEntity
  8
RIQUADRO
100
AcDbLine
 10
614.2129391868
 20
573.8377978596
 30
0.0
 11
614.2129391868
 21
563.8377978596
 31
0.0
  0
LINE
  5
99
330
1F
100
AcDbEntity
  8
RIQUADRO
100
AcDbLine
 10
711.7129391868
 20
573.8377978596
 30
0.0
 11
711.7129391868
 21
563.8377978596
 31
0.0
  0
LINE
  5
9A
330
1F
100
AcDbEntity
  8
RIQUADRO
100
AcDbLine
 10
126.7129391868
 20
29.8377978596
 30
0.0
 11
126.7129391868
 21
19.8377978596
 31
0.0
  0
LINE
  5
9B
330
1F
100
AcDbEntity
  8
RIQUADRO
100
AcDbLine
 10
224.2129391868
 20
29.8377978596
 30
0.0
 11
224.2129391868
 21
19.8377978596
 31
0.0
  0
LINE
  5
9C
330
1F
100
AcDbEntity
  8
CONTORNO
100
AcDbLine
 10
439.2129391868
 20
29.8377978596
 30
0.0
 11
439.2129391868
 21
19.8377978596
 31
0.0
  0
LINE
  5
9D
330
1F
100
AcDbEntity
  8
CONTORNO
100
AcDbLine
 10
419.2129391868
 20
29.8377978596
 30
0.0
 11
419.2129391868
 21
19.8377978596
 31
0.0
  0
LINE
  5
9E
330
1F
100
AcDbEntity
  8
CONTORNO
100
AcDbLine
 10
459.2129391868
 20
29.8377978596
 30
0.0
 11
459.2129391868
 21
19.8377978596
 31
0.0
  0
LINE
  5
9F
330
1F
100
AcDbEntity
  8
CONTORNO
100
AcDbLine
 10
479.2129391868
 20
29.8377978596
 30
0.0
 11
479.2129391868
 21
19.8377978596
 31
0.0
  0
LINE
  5
A0
330
1F
100
AcDbEntity
  8
CONTORNO
100
AcDbLine
 10
499.2129391868
 20
29.8377978596
 30
0.0
 11
499.2129391868
 21
19.8377978596
 31
0.0
  0
LINE
  5
A1
330
1F
100
AcDbEntity
  8
RIQUADRO
100
AcDbLine
 10
519.2129391868
 20
29.8377978596
 30
0.0
 11
519.2129391868
 21
19.8377978596
 31
0.0
  0
LINE
  5
A2
330
1F
100
AcDbEntity
  8
CONTORNO
100
AcDbLine
 10
399.2129391868
 20
29.8377978596
 30
0.0
 11
399.2129391868
 21
19.8377978596
 31
0.0
  0
LINE
  5
A3
330
1F
100
AcDbEntity
  8
CONTORNO
100
AcDbLine
 10
379.2129391868
 20
29.8377978596
 30
0.0
 11
379.2129391868
 21
19.8377978596
 31
0.0
  0
LINE
  5
A4
330
1F
100
AcDbEntity
  8
TABELLA_REV
100
AcDbLine
 10
449.2129391868
 20
521.8377978596
 30
0.0
 11
449.2129391868
 21
563.8377978596
 31
0.0
  0
LINE
  5
A5
330
1F
100
AcDbEntity
  8
TABELLA_REV
100
AcDbLine
 10
809.2129391868
 20
532.8377978596
 30
0.0
 11
449.2129391868
 21
532.8377978596
 31
0.0
  0
LINE
  5
A6
330
1F
100
AcDbEntity
  8
TABELLA_REV
100
AcDbLine
 10
809.2129391868
 20
543.8377978596
 30
0.0
 11
449.2129391868
 21
543.8377978596
 31
0.0
  0
LINE
  5
A7
330
1F
100
AcDbEntity
  8
TABELLA_REV
100
AcDbLine
 10
809.2129391868
 20
554.8377978596
 30
0.0
 11
449.2129391868
 21
554.8377978596
 31
0.0
  0
LINE
  5
A8
330
1F
100
AcDbEntity
  8
TABELLA_REV
100
AcDbLine
 10
481.2129391868
 20
563.8377978596
 30
0.0
 11
481.2129391868
 21
521.8377978596
 31
0.0
  0
LINE
  5
A9
330
1F
100
AcDbEntity
  8
TABELLA_REV
100
AcDbLine
 10
703.2129391868
 20
563.8377978596
 30
0.0
 11
703.2129391868
 21
521.8377978596
 31
0.0
  0
LINE
  5
AA
330
1F
100
AcDbEntity
  8
TABELLA_REV
100
AcDbLine
 10
749.2129391868
 20
563.8377978596
 30
0.0
 11
749.2129391868
 21
521.8377978596
 31
0.0
  0
LINE
  5
AB
330
1F
100
AcDbEntity
  8
RIQUADRO
100
AcDbLine
 10
614.2129391868
 20
29.8377978596
 30
0.0
 11
614.2129391868
 21
19.8377978596
 31
0.0
  0
LINE
  5
AC
330
1F
100
AcDbEntity
  8
RIQUADRO
100
AcDbLine
 10
711.7129391868
 20
29.8377978596
 30
0.0
 11
711.7129391868
 21
19.8377978596
 31
0.0
  0
LINE
  5
AD
330
1F
100
AcDbEntity
  8
CONTORNO
100
AcDbLine
 10
359.2129391868
 20
29.8377978596
 30
0.0
 11
359.2129391868
 21
19.8377978596
 31
0.0
  0
LINE
  5
AE
330
1F
100
AcDbEntity
  8
CONTORNO
100
AcDbLine
 10
339.2129391868
 20
29.8377978596
 30
0.0
 11
339.2129391868
 21
19.8377978596
 31
0.0
  0
LINE
  5
AF
330
1F
100
AcDbEntity
  8
RIQUADRO
100
AcDbLine
 10
319.2129391868
 20
29.8377978596
 30
0.0
 11
319.2129391868
 21
19.8377978596
 31
0.0
  0
LINE
  5
B0
330
1F
100
AcDbEntity
  8
RIQUADRO
100
AcDbLine
 10
19.2129391868
 20
29.8377978596
 30
0.0
 11
809.2129391868
 21
29.8377978596
 31
0.0
  0
LINE
  5
B1
330
1F
100
AcDbEntity
  8
RIQUADRO
100
AcDbLine
 10
419.2129391868
 20
39.8377978596
 30
0.0
 11
419.2129391868
 21
19.8377978596
 31
0.0
  0
LINE
  5
B2
330
1F
100
AcDbEntity
  8
CONTORNO
100
AcDbLine
 10
319.2129391868
 20
29.8377978596
 30
0.0
 11
519.2129391868
 21
29.8377978596
 31
0.0
  0
LINE
  5
B3
330
1F
100
AcDbEntity
  8
CONTORNO
100
AcDbLine
 10
319.2129391868
 20
29.8377978596
 30
0.0
 11
319.2129391868
 21
19.8377978596
 31
0.0
  0
LINE
  5
B4
330
1F
100
AcDbEntity
  8
CONTORNO
100
AcDbLine
 10
319.2129391868
 20
19.8377978596
 30
0.0
 11
519.2129391868
 21
19.8377978596
 31
0.0
  0
LINE
  5
B5
330
1F
100
AcDbEntity
  8
CONTORNO
100
AcDbLine
 10
519.2129391868
 20
29.8377978596
 30
0.0
 11
519.2129391868
 21
19.8377978596
 31
0.0
  0
CIRCLE
  5
B6
330
1F
100
AcDbEntity
  8
PROIEZ
100
AcDbCircle
 10
657.2394005592
 20
132.4235227835
 30
0.0
 40
7.99999999999998
  0
CIRCLE
  5
B7
330
1F
100
AcDbEntity
  8
PROIEZ
100
AcDbCircle
 10
657.2394005592
 20
132.4235227835
 30
0.0
 40
3.99999999999999
  0
MTEXT
  5
B9
330
1F
100
AcDbEntity
  8
RIQUADRO
100
AcDbMText
 10
74.4667934989
 20
572.9187515867
 30
0.0
 40
7.0
 41
0.0
 71
     1
 72
     1
  1
1
  7
SLDTEXTSTYLE0
 73
     1
 44
1.0
  0
MTEXT
  5
BA
330
1F
100
AcDbEntity
  8
RIQUADRO
100
AcDbMText
 10
171.2575214217
 20
573.0912374273
 30
0.0
 40
7.0
 41
0.0
 71
     1
 72
     1
  1
2
  7
SLDTEXTSTYLE0
 73
     1
 44
1.0
  0
MTEXT
  5
BB
330
1F
100
AcDbEntity
  8
RIQUADRO
100
AcDbMText
 10
269.6556118771
 20
572.9998735187
 30
0.0
 40
7.0
 41
0.0
 71
     1
 72
     1
  1
3
  7
SLDTEXTSTYLE0
 73
     1
 44
1.0
  0
MTEXT
  5
BC
330
1F
100
AcDbEntity
  8
RIQUADRO
100
AcDbMText
 10
369.1015351445
 20
573.1790191998
 30
0.0
 40
7.0
 41
0.0
 71
     1
 72
     1
  1
4
  7
SLDTEXTSTYLE0
 73
     1
 44
1.0
  0
MTEXT
  5
BD
330
1F
100
AcDbEntity
  8
RIQUADRO
100
AcDbMText
 10
21.2194596573
 20
85.8889580981
 30
0.0
 40
7.0
 41
0.0
 71
     1
 72
     1
  1
A
  7
SLDTEXTSTYLE0
 73
     1
 44
1.0
  0
MTEXT
  5
BE
330
1F
100
AcDbEntity
  8
RIQUADRO
100
AcDbMText
 10
21.4062526645
 20
235.0866323761
 30
0.0
 40
7.0
 41
0.0
 71
     1
 72
     1
  1
B
  7
SLDTEXTSTYLE0
 73
     1
 44
1.0
  0
MTEXT
  5
BF
330
1F
100
AcDbEntity
  8
RIQUADRO
100
AcDbMText
 10
21.1765875232
 20
374.5937716075
 30
0.0
 40
7.0
 41
0.0
 71
     1
 72
     1
  1
C
  7
SLDTEXTSTYLE0
 73
     1
 44
1.0
  0
MTEXT
  5
C0
330
1F
100
AcDbEntity
  8
RIQUADRO
100
AcDbMText
 10
20.2622196861
 20
509.1996690195
 30
0.0
 40
7.0
 41
0.0
 71
     1
 72
     1
  1
D
  7
SLDTEXTSTYLE0
 73
     1
 44
1.0
  0
MTEXT
  5
C1
330
1F
100
AcDbEntity
  8
RIQUADRO
100
AcDbMText
 10
810.8118214071
 20
505.8512012831
 30
0.0
 40
7.0
 41
0.0
 71
     1
 72
     1
  1
D
  7
SLDTEXTSTYLE0
 73
     1
 44
1.0
  0
MTEXT
  5
C2
330
1F
100
AcDbEntity
  8
RIQUADRO
100
AcDbMText
 10
810.7548237027
 20
369.6624768437
 30
0.0
 40
7.0
 41
0.0
 71
     1
 72
     1
  1
C
  7
SLDTEXTSTYLE0
 73
     1
 44
1.0
  0
MTEXT
  5
C3
330
1F
100
AcDbEntity
  8
RIQUADRO
100
AcDbMText
 10
810.8680988898
 20
236.627474331
 30
0.0
 40
7.0
 41
0.0
 71
     1
 72
     1
  1
B
  7
SLDTEXTSTYLE0
 73
     1
 44
1.0
  0
MTEXT
  5
C4
330
1F
100
AcDbEntity
  8
RIQUADRO
100
AcDbMText
 10
811.6905451408
 20
103.9211323072
 30
0.0
 40
7.0
 41
0.0
 71
     1
 72
     1
  1
A
  7
SLDTEXTSTYLE0
 73
     1
 44
1.0
  0
MTEXT
  5
C5
330
1F
100
AcDbEntity
  8
RIQUADRO
100
AcDbMText
 10
515.39685534
 20
18.2078662014
 30
0.0
 40
5.0
 41
0.0
 71
     1
 72
     1
  1
10
  7
SLDTEXTSTYLE0
 73
     1
 44
1.0
  0
MTEXT
  5
C6
330
1F
100
AcDbEntity
  8
RIQUADRO
100
AcDbMText
 10
495.5602561908
 20
18.2078662014
 30
0.0
 40
5.0
 41
0.0
 71
     1
 72
     1
  1
9
  7
SLDTEXTSTYLE0
 73
     1
 44
1.0
  0
MTEXT
  5
C7
330
1F
100
AcDbEntity
  8
RIQUADRO
100
AcDbMText
 10
475.2595255854
 20
18.0528927705
 30
0.0
 40
5.0
 41
0.0
 71
     1
 72
     1
  1
8
  7
SLDTEXTSTYLE0
 73
     1
 44
1.0
  0
MTEXT
  5
C8
330
1F
100
AcDbEntity
  8
RIQUADRO
100
AcDbMText
 10
455.5771110309
 20
18.0528927705
 30
0.0
 40
5.0
 41
0.0
 71
     1
 72
     1
  1
7
  7
SLDTEXTSTYLE0
 73
     1
 44
1.0
  0
MTEXT
  5
C9
330
1F
100
AcDbEntity
  8
RIQUADRO
100
AcDbMText
 10
435.6491111493
 20
18.1303794859
 30
0.0
 40
5.0
 41
0.0
 71
     1
 72
     1
  1
6
  7
SLDTEXTSTYLE0
 73
     1
 44
1.0
  0
MTEXT
  5
CA
330
1F
100
AcDbEntity
  8
RIQUADRO
100
AcDbMText
 10
415.5164791555
 20
18.2078662014
 30
0.0
 40
5.0
 41
0.0
 71
     1
 72
     1
  1
5
  7
SLDTEXTSTYLE0
 73
     1
 44
1.0
  0
MTEXT
  5
CB
330
1F
100
AcDbEntity
  8
RIQUADRO
100
AcDbMText
 10
395.2958186649
 20
18.1442687002
 30
0.0
 40
5.0
 41
0.0
 71
     1
 72
     1
  1
4
  7
SLDTEXTSTYLE0
 73
     1
 44
1.0
  0
MTEXT
  5
CC
330
1F
100
AcDbEntity
  8
RIQUADRO
100
AcDbMText
 10
375.3448231611
 20
17.9940696657
 30
0.0
 40
5.0
 41
0.0
 71
     1
 72
     1
  1
3
  7
SLDTEXTSTYLE0
 73
     1
 44
1.0
  0
MTEXT
  5
CD
330
1F
100
AcDbEntity
  8
RIQUADRO
100
AcDbMText
 10
355.094563164
 20
17.8555189826
 30
0.0
 40
5.0
 41
0.0
 71
     1
 72
     1
  1
2
  7
SLDTEXTSTYLE0
 73
     1
 44
1.0
  0
MTEXT
  5
CE
330
1F
100
AcDbEntity
  8
RIQUADRO
100
AcDbMText
 10
335.6849823633
 20
17.7835121277
 30
0.0
 40
5.0
 41
0.0
 71
     1
 72
     1
  1
1
  7
SLDTEXTSTYLE0
 73
     1
 44
1.0
  0
MTEXT
  5
CF
330
1F
100
AcDbEntity
  8
RIQUADRO
100
AcDbMText
 10
316.1659635281
 20
17.8585153089
 30
0.0
 40
5.0
 41
0.0
 71
     1
 72
     1
  1
0
  7
SLDTEXTSTYLE0
 73
     1
 44
1.0
  0
MTEXT
  5
D0
330
1F
100
AcDbEntity
  8
RIQUADRO
100
AcDbMText
 10
463.3958461937
 20
572.9620991375
 30
0.0
 40
7.0
 41
0.0
 71
     1
 72
     1
  1
5
  7
SLDTEXTSTYLE0
 73
     1
 44
1.0
  0
MTEXT
  5
D1
330
1F
100
AcDbEntity
  8
RIQUADRO
100
AcDbMText
 10
566.861492699
 20
572.6183189142
 30
0.0
 40
7.0
 41
0.0
 71
     1
 72
     1
  1
6
  7
SLDTEXTSTYLE0
 73
     1
 44
1.0
  0
MTEXT
  5
D2
330
1F
100
AcDbEntity
  8
RIQUADRO
100
AcDbMText
 10
663.2554087412
 20
572.8574940487
 30
0.0
 40
7.0
 41
0.0
 71
     1
 72
     1
  1
7
  7
SLDTEXTSTYLE0
 73
     1
 44
1.0
  0
MTEXT
  5
D3
330
1F
100
AcDbEntity
  8
RIQUADRO
100
AcDbMText
 10
759.9429721596
 20
572.0484441871
 30
0.0
 40
7.0
 41
0.0
 71
     1
 72
     1
  1
8
  7
SLDTEXTSTYLE0
 73
     1
 44
1.0
  0
MTEXT
  5
D4
330
1F
100
AcDbEntity
  8
RIQUADRO
100
AcDbMText
 10
268.8343221567
 20
29.5288932351
 30
0.0
 40
7.0
 41
0.0
 71
     1
 72
     1
  1
3
  7
SLDTEXTSTYLE0
 73
     1
 44
1.0
  0
MTEXT
  5
D5
330
1F
100
AcDbEntity
  8
RIQUADRO
100
AcDbMText
 10
170.4362317013
 20
29.6202571436
 30
0.0
 40
7.0
 41
0.0
 71
     1
 72
     1
  1
2
  7
SLDTEXTSTYLE0
 73
     1
 44
1.0
  0
MTEXT
  5
D6
330
1F
100
AcDbEntity
  8
RIQUADRO
100
AcDbMText
 10
73.6455037785
 20
29.447771303
 30
0.0
 40
7.0
 41
0.0
 71
     1
 72
     1
  1
1
  7
SLDTEXTSTYLE0
 73
     1
 44
1.0
  0
MTEXT
  5
D7
330
1F
100
AcDbEntity
  8
RIQUADRO
100
AcDbMText
 10
757.512534657
 20
28.685571793
 30
0.0
 40
7.0
 41
0.0
 71
     1
 72
     1
  1
8
  7
SLDTEXTSTYLE0
 73
     1
 44
1.0
  0
MTEXT
  5
D8
330
1F
100
AcDbEntity
  8
RIQUADRO
100
AcDbMText
 10
660.8249712386
 20
29.4946216546
 30
0.0
 40
7.0
 41
0.0
 71
     1
 72
     1
  1
7
  7
SLDTEXTSTYLE0
 73
     1
 44
1.0
  0
MTEXT
  5
D9
330
1F
100
AcDbEntity
  8
RIQUADRO
100
AcDbMText
 10
564.4310551964
 20
29.2554465201
 30
0.0
 40
7.0
 41
0.0
 71
     1
 72
     1
  1
6
  7
SLDTEXTSTYLE0
 73
     1
 44
1.0
  0
MTEXT
  5
DA
330
1F
100
AcDbEntity
  8
CARTIGLIO
100
AcDbMText
 10
643.5717199386
 20
70.3132604152
 30
0.0
 40
5.2916666667
 41
0.0
 71
     2
 72
     1
  1
A. Bnà
  7
SLDTEXTSTYLE0
 73
     1
 44
1.0
  0
MTEXT
  5
DB
330
1F
100
AcDbEntity
  8
CARTIGLIO
100
AcDbMText
 10
602.1234546841
 20
70.3132602988
 30
0.0
 40
5.2916666667
 41
0.0
 71
     2
 72
     1
  1
14/09/2013
  7
SLDTEXTSTYLE0
 73
     1
 44
1.0
  0
MTEXT
  5
DC
330
1F
100
AcDbEntity
  8
CARTIGLIO
100
AcDbMText
 10
699.3305582947
 20
66.5833163547
 30
0.0
 40
9.0
 41
0.0
 71
     1
 72
     1
  1
20951-0-A
  7
SLDTEXTSTYLE0
 73
     1
 44
1.0
  0
MTEXT
  5
DD
330
1F
100
AcDbEntity
  8
CARTIGLIO
100
AcDbMText
 10
731.5387867992
 20
103.9211188708
 30
0.0
 40
7.0
 41
0.0
 71
     2
 72
     1
  1
Layout
  7
SLDTEXTSTYLE0
 73
     1
 44
1.0
  0
MTEXT
  5
DE
330
1F
100
AcDbEntity
  8
CARTIGLIO
100
AcDbMText
 10
731.403283142
 20
126.801689067
 30
0.0
 40
7.0
 41
0.0
 71
     2
 72
     1
  1
PCXX030XS
  7
SLDTEXTSTYLE0
 73
     1
 44
1.0
  0
MTEXT
  5
DF
330
1F
100
AcDbEntity
  8
CARTIGLIO
100
AcDbMText
 10
688.2785974663
 20
146.1858072912
 30
0.0
 40
7.0
 41
0.0
 71
     1
 72
     1
  1
2950 gr
  7
SLDTEXTSTYLE0
 73
     1
 44
1.0
  0
MTEXT
  5
E0
330
1F
100
AcDbEntity
  8
RIQUADRO
100
AcDbMText
 10
533.351007654
 20
125.2086058194
 30
0.0
 40
6.8791666667
 41
0.0
 71
     2
 72
     1
  1
N.A.
  7
SLDTEXTSTYLE0
 73
     1
 44
1.0
  0
MTEXT
  5
E1
330
1F
100
AcDbEntity
  8
RIQUADRO
100
AcDbMText
 10
532.3160542702
 20
142.6191153109
 30
0.0
 40
6.8791666667
 41
0.0
 71
     2
 72
     1
  1
N.A.
  7
SLDTEXTSTYLE0
 73
     1
 44
1.0
  0
MTEXT
  5
E2
330
1F
100
AcDbEntity
  8
CARTIGLIO
100
AcDbMText
 10
621.0039916646
 20
49.476914934
 30
0.0
 40
6.0
 41
0.0
 71
     1
 72
     1
  1
C. Sedazzari
  7
SLDTEXTSTYLE0
 73
     1
 44
1.0
  0
MTEXT
  5
E3
330
1F
100
AcDbEntity
  8
CARTIGLIO
100
AcDbMText
 10
588.2908616994
 20
79.8874510526
 30
0.0
 40
4.0
 41
0.0
 71
     1
 72
     1
  1
Date
  7
SLDTEXTSTYLE0
 73
     1
 44
1.0
  0
MTEXT
  5
E4
330
1F
100
AcDbEntity
  8
CARTIGLIO
100
AcDbMText
 10
636.8063796609
 20
80.3727360296
 30
0.0
 40
4.0
 41
0.0
 71
     1
 72
     1
  1
Name
  7
SLDTEXTSTYLE0
 73
     1
 44
1.0
  0
MTEXT
  5
E5
330
1F
100
AcDbEntity
  8
CARTIGLIO
100
AcDbMText
 10
598.587923189
 20
49.8411151492
 30
0.0
 40
6.0
 41
0.0
 71
     1
 72
     1
  1
x
  7
SLDTEXTSTYLE0
 73
     1
 44
1.0
  0
MTEXT
  5
E6
330
1F
100
AcDbEntity
  8
CARTIGLIO
100
AcDbMText
 10
555.4461695711
 20
48.0945308846
 30
0.0
 40
4.0
 41
0.0
 71
     1
 72
     1
  1
Checked
  7
SLDTEXTSTYLE0
 73
     1
 44
1.0
  0
MTEXT
  5
E7
330
1F
100
AcDbEntity
  8
CARTIGLIO
100
AcDbMText
 10
555.8326969119
 20
59.3753628765
 30
0.0
 40
4.0
 41
0.0
 71
     1
 72
     1
  1
Draw
  7
SLDTEXTSTYLE0
 73
     1
 44
1.0
  0
MTEXT
  5
E8
330
1F
100
AcDbEntity
  8
CARTIGLIO
100
AcDbMText
 10
555.8468705696
 20
70.2467097436
 30
0.0
 40
4.0
 41
0.0
 71
     1
 72
     1
  1
Designed
  7
SLDTEXTSTYLE0
 73
     1
 44
1.0
  0
MTEXT
  5
E9
330
1F
100
AcDbEntity
  8
CARTIGLIO
100
AcDbMText
 10
591.43866172
 20
114.4846277285
 30
0.0
 40
4.0
 41
0.0
 71
     1
 72
     1
  1
K
  7
SLDTEXTSTYLE0
 73
     1
 44
1.0
  0
MTEXT
  5
EA
330
1F
100
AcDbEntity
  8
CARTIGLIO
100
AcDbMText
 10
590.8852168008
 20
106.8441522136
 30
0.0
 40
4.0
 41
0.0
 71
     1
 72
     1
  1
m
  7
SLDTEXTSTYLE0
 73
     1
 44
1.0
  0
MTEXT
  5
EB
330
1F
100
AcDbEntity
  8
CARTIGLIO
100
AcDbMText
 10
570.9047541054
 20
106.3250303977
 30
0.0
 40
3.0
 41
0.0
 71
     1
 72
     1
  1
Class
  7
SLDTEXTSTYLE0
 73
     1
 44
1.0
  0
MTEXT
  5
EC
330
1F
100
AcDbEntity
  8
CARTIGLIO
100
AcDbMText
 10
571.2907360442
 20
113.6307850806
 30
0.0
 40
3.0
 41
0.0
 71
     1
 72
     1
  1
Class
  7
SLDTEXTSTYLE0
 73
     1
 44
1.0
  0
MTEXT
  5
ED
330
1F
100
AcDbEntity
  8
CARTIGLIO
100
AcDbMText
 10
589.2317108352
 20
87.8386225928
 30
0.0
 40
4.0
 41
0.0
 71
     1
 72
     1
  1
±2
  7
SLDTEXTSTYLE0
 73
     1
 44
1.0
  0
MTEXT
  5
EE
330
1F
100
AcDbEntity
  8
CARTIGLIO
100
AcDbMText
 10
568.511634386
 20
87.9126417513
 30
0.0
 40
4.0
 41
0.0
 71
     1
 72
     1
  1
±1.2
  7
SLDTEXTSTYLE0
 73
     1
 44
1.0
  0
MTEXT
  5
EF
330
1F
100
AcDbEntity
  8
CARTIGLIO
100
AcDbMText
 10
548.8775551163
 20
88.0917404401
 30
0.0
 40
4.0
 41
0.0
 71
     1
 72
     1
  1
±0.8
  7
SLDTEXTSTYLE0
 73
     1
 44
1.0
  0
MTEXT
  5
F0
330
1F
100
AcDbEntity
  8
CARTIGLIO
100
AcDbMText
 10
530.1746436595
 20
87.7783657477
 30
0.0
 40
4.0
 41
0.0
 71
     1
 72
     1
  1
±0.5
  7
SLDTEXTSTYLE0
 73
     1
 44
1.0
  0
MTEXT
  5
F1
330
1F
100
AcDbEntity
  8
CARTIGLIO
100
AcDbMText
 10
511.1457127454
 20
87.5543204425
 30
0.0
 40
4.0
 41
0.0
 71
     1
 72
     1
  1
±0.3
  7
SLDTEXTSTYLE0
 73
     1
 44
1.0
  0
MTEXT
  5
F2
330
1F
100
AcDbEntity
  8
CARTIGLIO
100
AcDbMText
 10
493.0659649355
 20
87.7774695578
 30
0.0
 40
4.0
 41
0.0
 71
     1
 72
     1
  1
±0.2
  7
SLDTEXTSTYLE0
 73
     1
 44
1.0
  0
MTEXT
  5
F3
330
1F
100
AcDbEntity
  8
CARTIGLIO
100
AcDbMText
 10
472.6681084195
 20
87.4572018559
 30
0.0
 40
4.0
 41
0.0
 71
     1
 72
     1
  1
±0.1
  7
SLDTEXTSTYLE0
 73
     1
 44
1.0
  0
MTEXT
  5
F4
330
1F
100
AcDbEntity
  8
CARTIGLIO
100
AcDbMText
 10
452.879469326
 20
87.7086002227
 30
0.0
 40
4.0
 41
0.0
 71
     1
 72
     1
  1
±0.1
  7
SLDTEXTSTYLE0
 73
     1
 44
1.0
  0
INSERT
  5
FA
330
1F
100
AcDbEntity
  8
CARTIGLIO
100
AcDbBlockReference
  2
SW_NOTE_0
 10
584.5058313656
 20
95.6082186853
 30
0.0
  0
INSERT
  5
100
330
1F
100
AcDbEntity
  8
CARTIGLIO
100
AcDbBlockReference
  2
SW_NOTE_1
 10
566.1072453689
 20
95.751842252
 30
0.0
  0
INSERT
  5
106
330
1F
100
AcDbEntity
  8
CARTIGLIO
100
AcDbBlockReference
  2
SW_NOTE_2
 10
546.310250456
 20
95.3811974443
 30
0.0
  0
INSERT
  5
10C
330
1F
100
AcDbEntity
  8
CARTIGLIO
100
AcDbBlockReference
  2
SW_NOTE_3
 10
528.8404512944
 20
95.4804704807
 30
0.0
  0
INSERT
  5
112
330
1F
100
AcDbEntity
  8
CARTIGLIO
100
AcDbBlockReference
  2
SW_NOTE_4
 10
510.0889015176
 20
95.6919346164
 30
0.0
  0
INSERT
  5
118
330
1F
100
AcDbEntity
  8
CARTIGLIO
100
AcDbBlockReference
  2
SW_NOTE_5
 10
492.42499838
 20
96.1287792237
 30
0.0
  0
INSERT
  5
11E
330
1F
100
AcDbEntity
  8
CARTIGLIO
100
AcDbBlockReference
  2
SW_NOTE_6
 10
472.7891130235
 20
95.3124646733
 30
0.0
  0
INSERT
  5
124
330
1F
100
AcDbEntity
  8
CARTIGLIO
100
AcDbBlockReference
  2
SW_NOTE_7
 10
454.7925906477
 20
95.9907444424
 30
0.0
  0
MTEXT
  5
125
330
1F
100
AcDbEntity
  8
CARTIGLIO
100
AcDbMText
 10
453.1068757512
 20
107.0934091278
 30
0.0
 40
3.0
 41
0.0
 71
     1
 72
     1
  1
Linear tolerance (ISO 2768-2)
  7
SLDTEXTSTYLE0
 73
     1
 44
1.0
  0
MTEXT
  5
126
330
1F
100
AcDbEntity
  8
CARTIGLIO
100
AcDbMText
 10
452.755593411
 20
113.2628868187
 30
0.0
 40
3.0
 41
0.0
 71
     1
 72
     1
  1
Geometrical tolerance (ISO 2768-2)
  7
SLDTEXTSTYLE0
 73
     1
 44
1.0
  0
MTEXT
  5
127
330
1F
100
AcDbEntity
  8
CARTIGLIO
100
AcDbMText
 10
644.5267380646
 20
111.249252705
 30
0.0
 40
6.0
 41
0.0
 71
     1
 72
     1
  1
0.5x45°
  7
SLDTEXTSTYLE0
 73
     1
 44
1.0
  0
MTEXT
  5
129
330
1F
100
AcDbEntity
  8
CARTIGLIO
100
AcDbMText
 10
646.6268557228
 20
94.0854999227
 30
0.0
 40
6.0
 41
0.0
 71
     1
 72
     1
  1
R 0.5
  7
SLDTEXTSTYLE1
 73
     1
 44
1.0
  0
INSERT
  5
12F
330
1F
100
AcDbEntity
  8
CARTIGLIO
100
AcDbBlockReference
  2
SW_NOTE_8
 10
602.7309295648
 20
105.959037673
 30
0.0
  0
INSERT
  5
135
330
1F
100
AcDbEntity
  8
CARTIGLIO
100
AcDbBlockReference
  2
SW_NOTE_9
 10
602.9411463071
 20
90.5272954702
 30
0.0
  0
MTEXT
  5
136
330
1F
100
AcDbEntity
  8
CARTIGLIO
100
AcDbMText
 10
451.8489028774
 20
130.8876462417
 30
0.0
 40
4.0
 41
0.0
 71
     1
 72
     1
  1
Surface treatment
  7
SLDTEXTSTYLE0
 73
     1
 44
1.0
  0
MTEXT
  5
137
330
1F
100
AcDbEntity
  8
CARTIGLIO
100
AcDbMText
 10
450.8188769259
 20
148.2323749082
 30
0.0
 40
4.0
 41
0.0
 71
     1
 72
     1
  1
Material
  7
SLDTEXTSTYLE0
 73
     1
 44
1.0
  0
MTEXT
  5
138
330
1F
100
AcDbEntity
  8
CARTIGLIO
100
AcDbMText
 10
670.6564674746
 20
133.076106531
 30
0.0
 40
4.0
 41
0.0
 71
     1
 72
     1
  1
Project-Prod.item/Instrument
  7
SLDTEXTSTYLE0
 73
     1
 44
1.0
  0
MTEXT
  5
139
330
1F
100
AcDbEntity
  8
CARTIGLIO
100
AcDbMText
 10
671.7819044556
 20
111.8526932049
 30
0.0
 40
4.0
 41
0.0
 71
     1
 72
     1
  1
Description
  7
SLDTEXTSTYLE0
 73
     1
 44
1.0
  0
MTEXT
  5
13A
330
1F
100
AcDbEntity
  8
CARTIGLIO
100
AcDbMText
 10
673.0209809896
 20
46.9069671826
 30
0.0
 40
3.8
 41
0.0
 71
     1
 72
     1
  1
Reproduction forbidden without specific authorization
  7
SLDTEXTSTYLE0
 73
     1
 44
1.0
  0
MTEXT
  5
13C
330
1F
100
AcDbEntity
  8
CARTIGLIO
100
AcDbMText
 10
457.0705061057
 20
37.5057926217
 30
0.0
 40
4.0
 41
0.0
 71
     1
 72
     1
  1
OPTO  ENGINEERING S.r.l.    -   46100 Mantova Italy   -   Strada Circ. Sud , 15-   Tel.    +39 0376 263525    - e-mai: info@opto-engineering.com   -   http://www.opto-engineering.com
  7
SLDTEXTSTYLE2
 73
     1
 44
1.0
  0
MTEXT
  5
13D
330
1F
100
AcDbEntity
  8
CARTIGLIO
100
AcDbMText
 10
793.6565933636
 20
64.560736677
 30
0.0
 40
7.0
 41
0.0
 71
     1
 72
     1
  1
1/1
  7
SLDTEXTSTYLE0
 73
     1
 44
1.0
  0
MTEXT
  5
13E
330
1F
100
AcDbEntity
  8
CARTIGLIO
100
AcDbMText
 10
778.8797080161
 20
146.1858072912
 30
0.0
 40
7.0
 41
0.0
 71
     1
 72
     1
  1
1:2
  7
SLDTEXTSTYLE0
 73
     1
 44
1.0
  0
MTEXT
  5
140
330
1F
100
AcDbEntity
  8
CARTIGLIO
100
AcDbMText
 10
793.4978718924
 20
79.4558555293
 30
0.0
 40
4.0
 41
0.0
 71
     1
 72
     1
  1
Sheet
  7
SLDTEXTSTYLE3
 73
     1
 44
1.0
  0
MTEXT
  5
141
330
1F
100
AcDbEntity
  8
CARTIGLIO
100
AcDbMText
 10
760.0919702964
 20
147.8406291429
 30
0.0
 40
4.0
 41
0.0
 71
     1
 72
     1
  1
Scale
  7
SLDTEXTSTYLE3
 73
     1
 44
1.0
  0
MTEXT
  5
142
330
1F
100
AcDbEntity
  8
CARTIGLIO
100
AcDbMText
 10
673.2998443781
 20
80.0980759968
 30
0.0
 40
4.0
 41
0.0
 71
     1
 72
     1
  1
Drawing No.
  7
SLDTEXTSTYLE3
 73
     1
 44
1.0
  0
MTEXT
  5
143
330
1F
100
AcDbEntity
  8
CARTIGLIO
100
AcDbMText
 10
670.7310291438
 20
147.5898570524
 30
0.0
 40
4.0
 41
0.0
 71
     1
 72
     1
  1
Weight
  7
SLDTEXTSTYLE3
 73
     1
 44
1.0
  0
MTEXT
  5
144
330
1F
100
AcDbEntity
  8
TABELLA_REV
100
AcDbMText
 10
453.5525445203
 20
561.4667621065
 30
0.0
 40
4.0
 41
0.0
 71
     1
 72
     1
  1
Rev No.
  7
SLDTEXTSTYLE0
 73
     1
 44
1.0
  0
MTEXT
  5
145
330
1F
100
AcDbEntity
  8
TABELLA_REV
100
AcDbMText
 10
769.8639331714
 20
561.5492324345
 30
0.0
 40
4.0
 41
0.0
 71
     1
 72
     1
  1
Name
  7
SLDTEXTSTYLE0
 73
     1
 44
1.0
  0
MTEXT
  5
146
330
1F
100
AcDbEntity
  8
TABELLA_REV
100
AcDbMText
 10
718.8292904602
 20
561.5222542149
 30
0.0
 40
4.0
 41
0.0
 71
     1
 72
     1
  1
Date
  7
SLDTEXTSTYLE0
 73
     1
 44
1.0
  0
MTEXT
  5
147
330
1F
100
AcDbEntity
  8
TABELLA_REV
100
AcDbMText
 10
575.1196602158
 20
560.9260534699
 30
0.0
 40
4.0
 41
0.0
 71
     1
 72
     1
  1
Description
  7
SLDTEXTSTYLE0
 73
     1
 44
1.0
  0
MTEXT
  5
148
330
1F
100
AcDbEntity
  8
TABELLA_REV
100
AcDbMText
 10
485.6844961496
 20
553.0307183846
 30
0.0
 40
6.0
 41
0.0
 71
     1
 72
     1
  1
Layout
  7
SLDTEXTSTYLE0
 73
     1
 44
1.0
  0
MTEXT
  5
149
330
1F
100
AcDbEntity
  8
TABELLA_REV
100
AcDbMText
 10
464.2051716859
 20
553.0307181518
 30
0.0
 40
6.0
 41
0.0
 71
     2
 72
     1
  1
A
  7
SLDTEXTSTYLE0
 73
     1
 44
1.0
  0
MTEXT
  5
14A
330
1F
100
AcDbEntity
  8
TABELLA_REV
100
AcDbMText
 10
464.2051716859
 20
553.0307181518
 30
0.0
 40
6.0
 41
0.0
 71
     2
 72
     1
  1
A
  7
SLDTEXTSTYLE0
 73
     1
 44
1.0
  0
MTEXT
  5
14B
330
1F
100
AcDbEntity
  8
TABELLA_REV
100
AcDbMText
 10
777.6616761566
 20
552.1229542697
 30
0.0
 40
6.0
 41
0.0
 71
     2
 72
     1
  1
A. Bnà
  7
SLDTEXTSTYLE0
 73
     1
 44
1.0
  0
MTEXT
  5
14C
330
1F
100
AcDbEntity
  8
TABELLA_REV
100
AcDbMText
 10
725.0860627812
 20
552.1229542697
 30
0.0
 40
6.0
 41
0.0
 71
     2
 72
     1
  1
14/09/13
  7
SLDTEXTSTYLE0
 73
     1
 44
1.0
  0
MTEXT
  5
14D
330
1F
100
AcDbEntity
  8
CARTIGLIO
100
AcDbMText
 10
643.5717199386
 20
59.6183925716
 30
0.0
 40
5.2916666667
 41
0.0
 71
     2
 72
     1
  1
A. Bnà
  7
SLDTEXTSTYLE0
 73
     1
 44
1.0
  0
MTEXT
  5
14E
330
1F
100
AcDbEntity
  8
CARTIGLIO
100
AcDbMText
 10
601.6494964203
 20
59.6183924552
 30
0.0
 40
5.2916666667
 41
0.0
 71
     2
 72
     1
  1
14/09/2013
  7
SLDTEXTSTYLE0
 73
     1
 44
1.0
  0
LINE
  5
14F
330
1F
100
AcDbEntity
  8
0
  6
Continuous
 62
     7
370
    15
100
AcDbLine
 10
721.8329320312
 20
346.3720742534
 30
0.0
 11
718.2329306961
 21
346.3720742534
 31
0.0
  0
LINE
  5
150
330
1F
100
AcDbEntity
  8
0
  6
Continuous
 62
     7
370
    15
100
AcDbLine
 10
718.2329306961
 20
324.8720735233
 30
0.0
 11
721.8329320312
 21
324.8720735233
 31
0.0
  0
LINE
  5
151
330
1F
100
AcDbEntity
  8
0
  6
Continuous
 62
     7
370
    15
100
AcDbLine
 10
704.7329256893
 20
318.8720734711
 30
0.0
 11
710.9329412342
 21
318.8720734711
 31
0.0
  0
LINE
  5
152
330
1F
100
AcDbEntity
  8
0
  6
Continuous
 62
     7
370
    15
100
AcDbLine
 10
697.4988589645
 20
352.3720743056
 30
0.0
 11
694.732935226
 21
352.3720743056
 31
0.0
  0
LINE
  5
153
330
1F
100
AcDbEntity
  8
0
  6
Continuous
 62
     7
370
    15
100
AcDbLine
 10
702.7329514385
 20
352.3720743056
 30
0.0
 11
699.9816010357
 21
352.3720743056
 31
0.0
  0
LINE
  5
154
330
1F
100
AcDbEntity
  8
0
  6
Continuous
 62
     7
370
    15
100
AcDbLine
 10
694.732935226
 20
318.8720734711
 30
0.0
 11
702.7329514385
 21
318.8720734711
 31
0.0
  0
LINE
  5
155
330
1F
100
AcDbEntity
  8
0
  6
Continuous
 62
     7
370
    15
100
AcDbLine
 10
703.9838443161
 20
351.6229761686
 30
0.0
 11
703.7329385639
 21
351.3720741417
 31
0.0
  0
LINE
  5
156
330
1F
100
AcDbEntity
  8
0
  6
Continuous
 62
     7
370
    15
100
AcDbLine
 10
703.7329385639
 20
319.872073635
 30
0.0
 11
704.7329256893
 21
318.8720734711
 31
0.0
  0
LINE
  5
157
330
1F
100
AcDbEntity
  8
0
  6
Continuous
 62
     7
370
    15
100
AcDbLine
 10
702.7329514385
 20
318.8720734711
 30
0.0
 11
703.7329385639
 21
319.872073635
 31
0.0
  0
LINE
  5
158
330
1F
100
AcDbEntity
  8
0
  6
Continuous
 62
     7
370
    15
100
AcDbLine
 10
703.7329385639
 20
351.3720741417
 30
0.0
 11
702.7329514385
 21
352.3720743056
 31
0.0
  0
LINE
  5
159
330
1F
100
AcDbEntity
  8
0
  6
Continuous
 62
     7
370
    15
100
AcDbLine
 10
692.7329311729
 20
318.8720734711
 30
0.0
 11
693.7329481006
 21
319.872073635
 31
0.0
  0
LINE
  5
15A
330
1F
100
AcDbEntity
  8
0
  6
Continuous
 62
     7
370
    15
100
AcDbLine
 10
693.7329481006
 20
351.3720741417
 30
0.0
 11
693.4820423484
 21
351.6229761686
 31
0.0
  0
LINE
  5
15B
330
1F
100
AcDbEntity
  8
0
  6
Continuous
 62
     7
370
    15
100
AcDbLine
 10
694.732935226
 20
352.3720743056
 30
0.0
 11
693.7329481006
 21
351.3720741417
 31
0.0
  0
LINE
  5
15C
330
1F
100
AcDbEntity
  8
0
  6
Continuous
 62
     7
370
    15
100
AcDbLine
 10
693.7329481006
 20
319.872073635
 30
0.0
 11
694.732935226
 21
318.8720734711
 31
0.0
  0
LINE
  5
15D
330
1F
100
AcDbEntity
  8
0
  6
Continuous
 62
     7
370
    15
100
AcDbLine
 10
686.4329288364
 20
318.8720734711
 30
0.0
 11
692.7329311729
 21
318.8720734711
 31
0.0
  0
LINE
  5
15E
330
1F
100
AcDbEntity
  8
0
  6
Continuous
 62
     7
370
    15
100
AcDbLine
 10
714.2329225898
 20
351.6220746483
 30
0.0
 11
710.9329412342
 21
351.6220746483
 31
0.0
  0
LINE
  5
15F
330
1F
100
AcDbEntity
  8
0
  6
Continuous
 62
     7
370
    15
100
AcDbLine
 10
710.9329412342
 20
319.6220731284
 30
0.0
 11
714.2329225898
 21
319.6220731284
 31
0.0
  0
LINE
  5
160
330
1F
100
AcDbEntity
  8
0
  6
Continuous
 62
     7
370
    15
100
AcDbLine
 10
686.4329288364
 20
351.6220746483
 30
0.0
 11
686.0329518676
 21
351.6220746483
 31
0.0
  0
LINE
  5
161
330
1F
100
AcDbEntity
  8
0
  6
Continuous
 62
     7
370
    15
100
AcDbLine
 10
686.0329518676
 20
319.6220731284
 30
0.0
 11
686.4329288364
 21
319.6220731284
 31
0.0
  0
LINE
  5
162
330
1F
100
AcDbEntity
  8
0
  6
Continuous
 62
     7
370
    15
100
AcDbLine
 10
718.2329306961
 20
348.3220737349
 30
0.0
 11
714.2329225898
 21
348.3220737349
 31
0.0
  0
LINE
  5
163
330
1F
100
AcDbEntity
  8
0
  6
Continuous
 62
     7
370
    15
100
AcDbLine
 10
714.2329225898
 20
322.9220740418
 30
0.0
 11
718.2329306961
 21
322.9220740418
 31
0.0
  0
LINE
  5
164
330
1F
100
AcDbEntity
  8
0
  6
Continuous
 62
     7
370
    15
100
AcDbLine
 10
697.4829445243
 20
355.3720747973
 30
0.0
 11
697.4829445243
 21
352.3708989765
 31
0.0
  0
LINE
  5
165
330
1F
100
AcDbEntity
  8
0
  6
Continuous
 62
     7
370
    15
100
AcDbLine
 10
699.9829421402
 20
352.3719793107
 30
0.0
 11
699.9829421402
 21
355.3720747973
 31
0.0
  0
ARC
  5
166
330
1F
100
AcDbEntity
  8
0
  6
Continuous
 62
     7
370
    15
100
AcDbCircle
 10
505.7719323102
 20
287.6220738884
 30
0.0
 40
2.0
100
AcDbArc
 50
270.0
 51
0.0
  0
ARC
  5
167
330
1F
100
AcDbEntity
  8
0
  6
Continuous
 62
     7
370
    15
100
AcDbCircle
 10
505.7719323102
 20
383.6220738884
 30
0.0
 40
2.0
100
AcDbArc
 50
0.0
 51
90.0
  0
LINE
  5
168
330
1F
100
AcDbEntity
  8
0
  6
Continuous
 62
     7
370
    15
100
AcDbLine
 10
505.7719359756
 20
385.6220746334
 30
0.0
 11
493.032933271
 21
385.6220746334
 31
0.0
  0
LINE
  5
169
330
1F
100
AcDbEntity
  8
0
  6
Continuous
 62
     7
370
    15
100
AcDbLine
 10
493.032933271
 20
285.6220731433
 30
0.0
 11
505.7719359756
 21
285.6220731433
 31
0.0
  0
LINE
  5
16A
330
1F
100
AcDbEntity
  8
0
  6
Continuous
 62
     7
370
    15
100
AcDbLine
 10
685.0329349399
 20
318.1220738139
 30
0.0
 11
686.0329518676
 21
319.1220739778
 31
0.0
  0
LINE
  5
16B
330
1F
100
AcDbEntity
  8
0
  6
Continuous
 62
     7
370
    15
100
AcDbLine
 10
686.0329518676
 20
352.122073799
 30
0.0
 11
685.0329349399
 21
353.1220739629
 31
0.0
  0
LINE
  5
16C
330
1F
100
AcDbEntity
  8
0
  6
Continuous
 62
     7
370
    15
100
AcDbLine
 10
683.0329308868
 20
318.1220738139
 30
0.0
 11
685.0329349399
 21
318.1220738139
 31
0.0
  0
LINE
  5
16D
330
1F
100
AcDbEntity
  8
0
  6
Continuous
 62
     7
370
    15
100
AcDbLine
 10
685.0329349399
 20
353.1220739629
 30
0.0
 11
683.0329308868
 21
353.1220739629
 31
0.0
  0
LINE
  5
16E
330
1F
100
AcDbEntity
  8
0
  6
Continuous
 62
     7
370
    15
100
AcDbLine
 10
507.7719251276
 20
289.1220727857
 30
0.0
 11
507.7729384065
 21
289.1220727857
 31
0.0
  0
LINE
  5
16F
330
1F
100
AcDbEntity
  8
0
  6
Continuous
 62
     7
370
    15
100
AcDbLine
 10
507.7729384065
 20
382.122074991
 30
0.0
 11
507.7719251276
 21
382.122074991
 31
0.0
  0
LINE
  5
170
330
1F
100
AcDbEntity
  8
0
  6
Continuous
 62
     7
370
    15
100
AcDbLine
 10
507.7729384065
 20
289.1220727857
 30
0.0
 11
629.6329508186
 21
316.7220743294
 31
0.0
  0
LINE
  5
171
330
1F
100
AcDbEntity
  8
0
  6
Continuous
 62
     7
370
    15
100
AcDbLine
 10
629.6329508186
 20
354.5220734473
 30
0.0
 11
507.7729384065
 21
382.122074991
 31
0.0
  0
LINE
  5
172
330
1F
100
AcDbEntity
  8
0
  6
Continuous
 62
     7
370
    15
100
AcDbLine
 10
669.6329424739
 20
316.7220743294
 30
0.0
 11
671.0329363704
 21
318.1220738139
 31
0.0
  0
LINE
  5
173
330
1F
100
AcDbEntity
  8
0
  6
Continuous
 62
     7
370
    15
100
AcDbLine
 10
671.0329363704
 20
353.1220739629
 30
0.0
 11
669.6329424739
 21
354.5220734473
 31
0.0
  0
LINE
  5
174
330
1F
100
AcDbEntity
  8
0
  6
Continuous
 62
     7
370
    15
100
AcDbLine
 10
629.6329508186
 20
316.7220743294
 30
0.0
 11
669.6329424739
 21
316.7220743294
 31
0.0
  0
LINE
  5
175
330
1F
100
AcDbEntity
  8
0
  6
Continuous
 62
     7
370
    15
100
AcDbLine
 10
669.6329424739
 20
354.5220734473
 30
0.0
 11
629.6329508186
 21
354.5220734473
 31
0.0
  0
LINE
  5
176
330
1F
100
AcDbEntity
  8
0
  6
Continuous
 62
     7
370
    15
100
AcDbLine
 10
671.0329363704
 20
318.1220738139
 30
0.0
 11
683.0329308868
 21
318.1220738139
 31
0.0
  0
LINE
  5
177
330
1F
100
AcDbEntity
  8
0
  6
Continuous
 62
     7
370
    15
100
AcDbLine
 10
674.2988834739
 20
353.1220739629
 30
0.0
 11
671.0329363704
 21
353.1220739629
 31
0.0
  0
LINE
  5
178
330
1F
100
AcDbEntity
  8
0
  6
Continuous
 62
     7
370
    15
100
AcDbLine
 10
683.0329308868
 20
353.1220739629
 30
0.0
 11
676.7815361381
 21
353.1220739629
 31
0.0
  0
LINE
  5
179
330
1F
100
AcDbEntity
  8
0
  6
Continuous
 62
     7
370
    15
100
AcDbLine
 10
337.2329371632
 20
277.6220755573
 30
0.0
 11
451.2329334975
 21
277.6220755573
 31
0.0
  0
LINE
  5
17A
330
1F
100
AcDbEntity
  8
0
  6
Continuous
 62
     7
370
    15
100
AcDbLine
 10
451.2329334975
 20
393.6220722194
 30
0.0
 11
337.2329371632
 21
393.6220722194
 31
0.0
  0
LINE
  5
17B
330
1F
100
AcDbEntity
  8
0
  6
Continuous
 62
     7
370
    15
100
AcDbLine
 10
465.7543385983
 20
281.121207207
 30
0.0
 11
484.4329367042
 21
285.6220731433
 31
0.0
  0
LINE
  5
17C
330
1F
100
AcDbEntity
  8
0
  6
Continuous
 62
     7
370
    15
100
AcDbLine
 10
484.4329367042
 20
385.6220746334
 30
0.0
 11
465.7543385983
 21
390.1229405697
 31
0.0
  0
LINE
  5
17D
330
1F
100
AcDbEntity
  8
0
  6
Continuous
 62
     7
370
    15
100
AcDbLine
 10
337.2329371632
 20
393.6220722194
 30
0.0
 11
336.2329369993
 21
392.6220739182
 31
0.0
  0
LINE
  5
17E
330
1F
100
AcDbEntity
  8
0
  6
Continuous
 62
     7
370
    15
100
AcDbLine
 10
336.2329369993
 20
278.6220738586
 30
0.0
 11
337.2329371632
 21
277.6220755573
 31
0.0
  0
LINE
  5
17F
330
1F
100
AcDbEntity
  8
0
  6
Continuous
 62
     7
370
    15
100
AcDbLine
 10
484.4329367042
 20
285.6220731433
 30
0.0
 11
493.032933271
 21
285.6220731433
 31
0.0
  0
LINE
  5
180
330
1F
100
AcDbEntity
  8
0
  6
Continuous
 62
     7
370
    15
100
AcDbLine
 10
493.032933271
 20
385.6220746334
 30
0.0
 11
484.4329367042
 21
385.6220746334
 31
0.0
  0
LINE
  5
181
330
1F
100
AcDbEntity
  8
0
  6
Continuous
 62
     7
370
    15
100
AcDbLine
 10
721.8329320312
 20
346.3720742534
 30
0.0
 11
721.8329320312
 21
324.8720735233
 31
0.0
  0
LINE
  5
182
330
1F
100
AcDbEntity
  8
0
  6
Continuous
 62
     7
370
    15
100
AcDbLine
 10
710.9329412342
 20
352.3663913752
 30
0.0
 11
710.9329412342
 21
318.8720734711
 31
0.0
  0
LINE
  5
183
330
1F
100
AcDbEntity
  8
0
  6
Continuous
 62
     7
370
    15
100
AcDbLine
 10
704.7329256893
 20
352.3663913752
 30
0.0
 11
704.7329256893
 21
318.8720734711
 31
0.0
  0
LINE
  5
184
330
1F
100
AcDbEntity
  8
0
  6
Continuous
 62
     7
370
    15
100
AcDbLine
 10
710.9329412342
 20
352.3663913752
 30
0.0
 11
704.7329256893
 21
352.3663913752
 31
0.0
  0
SPLINE
  5
185
330
1F
100
AcDbEntity
  8
0
  6
Continuous
 62
     7
370
    15
100
AcDbSpline
210
0.0
220
0.0
230
1.0
 70
     8
 71
     3
 72
    12
 73
     8
 74
     0
 42
0.00000001
 43
0.00000001
 12
1.0
 22
0.0
 32
0.0
 13
1.0
 23
0.0
 33
0.0
 40
0.0
 40
0.0
 40
0.0
 40
0.0
 40
0.2144382223767607
 40
0.4288484409235204
 40
0.6436359297250702
 40
0.8586777606785604
 40
1.0
 40
1.0
 40
1.0
 40
1.0
 10
698.7329433322517
 20
352.3253666158316
 30
0.0
 10
698.5926732844301
 20
352.3264215713795
 30
0.0
 10
698.3121515068764
 20
352.3285313447069
 30
0.0
 10
697.9372933480577
 20
352.3433578889378
 30
0.0
 10
697.657124923992
 20
352.3594158456218
 30
0.0
 10
697.4978321291374
 20
352.3709496797096
 30
0.0
 10
697.4985673859089
 20
352.3709107066461
 30
0.0
 10
697.4988589644996
 20
352.3708952512142
 30
0.0
  0
SPLINE
  5
186
330
1F
100
AcDbEntity
  8
0
  6
Continuous
 62
     7
370
    15
100
AcDbSpline
210
0.0
220
0.0
230
1.0
 70
     8
 71
     3
 72
    13
 73
     9
 74
     0
 42
0.00000001
 43
0.00000001
 12
1.0
 22
0.0
 32
0.0
 13
1.0
 23
0.0
 33
0.0
 40
0.0
 40
0.0
 40
0.0
 40
0.0
 40
0.0041336909463916
 40
0.2182623657091913
 40
0.4323858495794089
 40
0.6470280199085771
 40
0.8618917185827568
 40
1.0
 40
1.0
 40
1.0
 40
1.0
 10
699.9816010356514
 20
352.3719774480459
 30
0.0
 10
699.9820459864957
 20
352.3720096940283
 30
0.0
 10
700.0055397660692
 20
352.3737123090759
 30
0.0
 10
699.9220134587545
 20
352.3674584330554
 30
0.0
 10
699.7265022308661
 20
352.3542023751243
 30
0.0
 10
699.4025820276435
 20
352.3375361200441
 30
0.0
 10
699.0536651264663
 20
352.326933268407
 30
0.0
 10
698.8231410846026
 20
352.3258072112123
 30
0.0
 10
698.7329433322517
 20
352.3253666158316
 30
0.0
  0
LINE
  5
187
330
1F
100
AcDbEntity
  8
0
  6
Continuous
 62
     7
370
    15
100
AcDbLine
 10
694.732935226
 20
352.3720743056
 30
0.0
 11
694.732935226
 21
318.8720734711
 31
0.0
  0
LINE
  5
188
330
1F
100
AcDbEntity
  8
0
  6
Continuous
 62
     7
370
    15
100
AcDbLine
 10
702.7329514385
 20
352.3720743056
 30
0.0
 11
702.7329514385
 21
318.8720734711
 31
0.0
  0
LINE
  5
189
330
1F
100
AcDbEntity
  8
0
  6
Continuous
 62
     7
370
    15
100
AcDbLine
 10
703.7329385639
 20
351.3720741417
 30
0.0
 11
703.7329385639
 21
319.872073635
 31
0.0
  0
SPLINE
  5
18A
330
1F
100
AcDbEntity
  8
0
  6
Continuous
 62
     7
370
    15
100
AcDbSpline
210
0.0
220
0.0
230
1.0
 70
     8
 71
     3
 72
    20
 73
    16
 74
     0
 42
0.00000001
 43
0.00000001
 12
1.0
 22
0.0
 32
0.0
 13
1.0
 23
0.0
 33
0.0
 40
0.0
 40
0.0
 40
0.0
 40
0.0
 40
0.0955783851895956
 40
0.1931013677604488
 40
0.3076378973168046
 40
0.4248987159464804
 40
0.5273491496021233
 40
0.6323837547165253
 40
0.7036128669906656
 40
0.7764538001761387
 40
0.8311535300510793
 40
0.887241042518679
 40
0.9333801579112903
 40
0.9808081084270246
 40
1.0
 40
1.0
 40
1.0
 40
1.0
 10
704.7329256892768
 20
352.3663913752434
 30
0.0
 10
704.7052014486104
 20
352.3382874309866
 30
0.0
 10
704.6491889016083
 20
352.2815077515153
 30
0.0
 10
704.5552655834463
 20
352.1869019628157
 30
0.0
 10
704.4534076755424
 20
352.0848857076898
 30
0.0
 10
704.3503416069958
 20
351.9823344765759
 30
0.0
 10
704.2530863105229
 20
351.8861541358171
 30
0.0
 10
704.1740121770739
 20
351.808404792009
 30
0.0
 10
704.1094880423226
 20
351.7452655448508
 30
0.0
 10
704.0637357516501
 20
351.7006042586684
 30
0.0
 10
704.0283620412857
 20
351.6661863704135
 30
0.0
 10
704.0045847642223
 20
351.643061953615
 30
0.0
 10
703.9896842983089
 20
351.6286233032126
 30
0.0
 10
703.9828495608172
 20
351.6220042359688
 30
0.0
 10
703.9836218379231
 20
351.6227486723062
 30
0.0
 10
703.9838443160621
 20
351.6229631300566
 30
0.0
  0
LINE
  5
18B
330
1F
100
AcDbEntity
  8
0
  6
Continuous
 62
     7
370
    15
100
AcDbLine
 10
693.7329481006
 20
351.3720741417
 30
0.0
 11
693.7329481006
 21
319.872073635
 31
0.0
  0
LINE
  5
18C
330
1F
100
AcDbEntity
  8
0
  6
Continuous
 62
     7
370
    15
100
AcDbLine
 10
692.7329311729
 20
352.3663913752
 30
0.0
 11
692.7329311729
 21
318.8720734711
 31
0.0
  0
SPLINE
  5
18D
330
1F
100
AcDbEntity
  8
0
  6
Continuous
 62
     7
370
    15
100
AcDbSpline
210
0.0
220
0.0
230
1.0
 70
     8
 71
     3
 72
    21
 73
    17
 74
     0
 42
0.00000001
 43
0.00000001
 12
1.0
 22
0.0
 32
0.0
 13
1.0
 23
0.0
 33
0.0
 40
0.0
 40
0.0
 40
0.0
 40
0.0
 40
0.0269756426632371
 40
0.0745874920397975
 40
0.119401611863494
 40
0.1652317628036433
 40
0.2294010338932694
 40
0.2954063300619359
 40
0.3849713319826695
 40
0.4770450935868944
 40
0.5959905719505496
 40
0.718375185642754
 40
0.8388175335822138
 40
0.9005540752732956
 40
0.9627808647098449
 40
1.0
 40
1.0
 40
1.0
 40
1.0
 10
693.4820125461189
 20
351.6229631300566
 30
0.0
 10
693.482126080603
 20
351.6228592775462
 30
0.0
 10
693.482440002779
 20
351.6225721259705
 30
0.0
 10
693.4743971469859
 20
351.6303479471572
 30
0.0
 10
693.4595158465333
 20
351.6447746452823
 30
0.0
 10
693.436020855171
 20
351.6676572766456
 30
0.0
 10
693.4018478886293
 20
351.7008880201722
 30
0.0
 10
693.3510923026508
 20
351.7504050030753
 30
0.0
 10
693.2860791122979
 20
351.8140740240628
 30
0.0
 10
693.2003393019243
 20
351.8984329549742
 30
0.0
 10
693.0998440138974
 20
351.9979091689064
 30
0.0
 10
692.9879774731106
 20
352.1093009948332
 30
0.0
 10
692.8938331169393
 20
352.2037702118357
 30
0.0
 10
692.819924306493
 20
352.2782963587741
 30
0.0
 10
692.7721229552994
 20
352.3266340577759
 30
0.0
 10
692.74360459778
 20
352.3555639334861
 30
0.0
 10
692.7329311729042
 20
352.3663913752434
 30
0.0
  0
LINE
  5
18E
330
1F
100
AcDbEntity
  8
0
  6
Continuous
 62
     7
370
    15
100
AcDbLine
 10
686.4329288364
 20
352.3663913752
 30
0.0
 11
686.4329288364
 21
318.8720734711
 31
0.0
  0
LINE
  5
18F
330
1F
100
AcDbEntity
  8
0
  6
Continuous
 62
     7
370
    15
100
AcDbLine
 10
692.7329311729
 20
352.3663913752
 30
0.0
 11
686.4329288364
 21
352.3663913752
 31
0.0
  0
LINE
  5
190
330
1F
100
AcDbEntity
  8
0
  6
Continuous
 62
     7
370
    15
100
AcDbLine
 10
714.2329225898
 20
351.6220746483
 30
0.0
 11
714.2329225898
 21
319.6220731284
 31
0.0
  0
LINE
  5
191
330
1F
100
AcDbEntity
  8
0
  6
Continuous
 62
     7
370
    15
100
AcDbLine
 10
718.2329306961
 20
348.3220737349
 30
0.0
 11
718.2329306961
 21
322.9220740418
 31
0.0
  0
LINE
  5
192
330
1F
100
AcDbEntity
  8
0
  6
Continuous
 62
     7
370
    15
100
AcDbLine
 10
698.7329433323
 20
355.3720747973
 30
0.0
 11
699.9829421402
 21
355.3720747973
 31
0.0
  0
LINE
  5
193
330
1F
100
AcDbEntity
  8
0
  6
Continuous
 62
     7
370
    15
100
AcDbLine
 10
697.4829445243
 20
355.3720747973
 30
0.0
 11
698.7329433323
 21
355.3720747973
 31
0.0
  0
LINE
  5
194
330
1F
100
AcDbEntity
  8
0
  6
Continuous
 62
     7
370
    15
100
AcDbLine
 10
507.7719251276
 20
383.6220743056
 30
0.0
 11
507.7719251276
 21
287.6220734711
 31
0.0
  0
LINE
  5
195
330
1F
100
AcDbEntity
  8
0
  6
Continuous
 62
     7
370
    15
100
AcDbLine
 10
493.032933271
 20
335.6220738884
 30
0.0
 11
493.032933271
 21
285.6220731433
 31
0.0
  0
LINE
  5
196
330
1F
100
AcDbEntity
  8
0
  6
Continuous
 62
     7
370
    15
100
AcDbLine
 10
493.032933271
 20
385.6220746334
 30
0.0
 11
493.032933271
 21
335.6220738884
 31
0.0
  0
LINE
  5
197
330
1F
100
AcDbEntity
  8
0
  6
Continuous
 62
     7
370
    15
100
AcDbLine
 10
685.0329349399
 20
335.6220738884
 30
0.0
 11
685.0329349399
 21
353.1220739629
 31
0.0
  0
LINE
  5
198
330
1F
100
AcDbEntity
  8
0
  6
Continuous
 62
     7
370
    15
100
AcDbLine
 10
685.0329349399
 20
318.1220738139
 30
0.0
 11
685.0329349399
 21
335.6220738884
 31
0.0
  0
LINE
  5
199
330
1F
100
AcDbEntity
  8
0
  6
Continuous
 62
     7
370
    15
100
AcDbLine
 10
686.0329518676
 20
335.6220738884
 30
0.0
 11
686.0329518676
 21
319.1220739778
 31
0.0
  0
LINE
  5
19A
330
1F
100
AcDbEntity
  8
0
  6
Continuous
 62
     7
370
    15
100
AcDbLine
 10
686.0329518676
 20
352.122073799
 30
0.0
 11
686.0329518676
 21
335.6220738884
 31
0.0
  0
LINE
  5
19B
330
1F
100
AcDbEntity
  8
0
  6
Continuous
 62
     7
370
    15
100
AcDbLine
 10
683.0329308868
 20
335.6220738884
 30
0.0
 11
683.0329308868
 21
353.1220739629
 31
0.0
  0
LINE
  5
19C
330
1F
100
AcDbEntity
  8
0
  6
Continuous
 62
     7
370
    15
100
AcDbLine
 10
683.0329308868
 20
318.1220738139
 30
0.0
 11
683.0329308868
 21
335.6220738884
 31
0.0
  0
LINE
  5
19D
330
1F
100
AcDbEntity
  8
0
  6
Continuous
 62
     7
370
    15
100
AcDbLine
 10
507.7729384065
 20
335.6220738884
 30
0.0
 11
507.7729384065
 21
382.122074991
 31
0.0
  0
LINE
  5
19E
330
1F
100
AcDbEntity
  8
0
  6
Continuous
 62
     7
370
    15
100
AcDbLine
 10
507.7729384065
 20
289.1220727857
 30
0.0
 11
507.7729384065
 21
335.6220738884
 31
0.0
  0
LINE
  5
19F
330
1F
100
AcDbEntity
  8
0
  6
Continuous
 62
     7
370
    15
100
AcDbLine
 10
629.6329508186
 20
335.6220738884
 30
0.0
 11
629.6329508186
 21
354.5220734473
 31
0.0
  0
LINE
  5
1A0
330
1F
100
AcDbEntity
  8
0
  6
Continuous
 62
     7
370
    15
100
AcDbLine
 10
629.6329508186
 20
316.7220743294
 30
0.0
 11
629.6329508186
 21
335.6220738884
 31
0.0
  0
LINE
  5
1A1
330
1F
100
AcDbEntity
  8
0
  6
Continuous
 62
     7
370
    15
100
AcDbLine
 10
671.0329363704
 20
335.6220738884
 30
0.0
 11
671.0329363704
 21
353.1220739629
 31
0.0
  0
LINE
  5
1A2
330
1F
100
AcDbEntity
  8
0
  6
Continuous
 62
     7
370
    15
100
AcDbLine
 10
671.0329363704
 20
318.1220738139
 30
0.0
 11
671.0329363704
 21
335.6220738884
 31
0.0
  0
LINE
  5
1A3
330
1F
100
AcDbEntity
  8
0
  6
Continuous
 62
     7
370
    15
100
AcDbLine
 10
669.6329424739
 20
335.6220738884
 30
0.0
 11
669.6329424739
 21
354.5220734473
 31
0.0
  0
LINE
  5
1A4
330
1F
100
AcDbEntity
  8
0
  6
Continuous
 62
     7
370
    15
100
AcDbLine
 10
669.6329424739
 20
316.7220743294
 30
0.0
 11
669.6329424739
 21
335.6220738884
 31
0.0
  0
SPLINE
  5
1A5
330
1F
100
AcDbEntity
  8
0
  6
Continuous
 62
     7
370
    15
100
AcDbSpline
210
0.0
220
0.0
230
1.0
 70
     8
 71
     3
 72
    12
 73
     8
 74
     0
 42
0.00000001
 43
0.00000001
 12
1.0
 22
0.0
 32
0.0
 13
1.0
 23
0.0
 33
0.0
 40
0.0
 40
0.0
 40
0.0
 40
0.0
 40
0.214461210405587
 40
0.4289128023804562
 40
0.6437135001473455
 40
0.8587331521470818
 40
1.0
 40
1.0
 40
1.0
 40
1.0
 10
675.5329380393592
 20
353.0773742045757
 30
0.0
 10
675.392657982418
 20
353.0783845063198
 30
0.0
 10
675.1121041599952
 20
353.0804050644968
 30
0.0
 10
674.7372142966841
 20
353.0945942205611
 30
0.0
 10
674.4570252603082
 20
353.1099628845887
 30
0.0
 10
674.2978400913762
 20
353.1209983259648
 30
0.0
 10
674.2985872336064
 20
353.1209602836173
 30
0.0
 10
674.2988834739295
 20
353.1209451999065
 30
0.0
  0
LINE
  5
1A6
330
1F
100
AcDbEntity
  8
0
  6
Continuous
 62
     7
370
    15
100
AcDbLine
 10
675.4651079536
 20
353.0781770046
 30
0.0
 11
675.8091459632
 21
353.0796503569
 31
0.0
  0
SPLINE
  5
1A7
330
1F
100
AcDbEntity
  8
0
  6
Continuous
 62
     7
370
    15
100
AcDbSpline
210
0.0
220
0.0
230
1.0
 70
     8
 71
     3
 72
    13
 73
     9
 74
     0
 42
0.00000001
 43
0.00000001
 12
1.0
 22
0.0
 32
0.0
 13
1.0
 23
0.0
 33
0.0
 40
0.0
 40
0.0
 40
0.0
 40
0.0
 40
0.0043709289147557
 40
0.2185436006465451
 40
0.4327095877777968
 40
0.6473506693097886
 40
0.8622146032719294
 40
1.0
 40
1.0
 40
1.0
 40
1.0
 10
676.7815361381141
 20
353.1219752426741
 30
0.0
 10
676.7820018240418
 20
353.1220081530608
 30
0.0
 10
676.8052858173081
 20
353.1236536509754
 30
0.0
 10
676.7219455733114
 20
353.1176376905481
 30
0.0
 10
676.5260965699031
 20
353.1049490610676
 30
0.0
 10
676.2020380129512
 20
353.0889943430495
 30
0.0
 10
675.8532244571428
 20
353.0788685281797
 30
0.0
 10
675.6229210456061
 20
353.0777940279673
 30
0.0
 10
675.5329380393592
 20
353.0773742045757
 30
0.0
  0
SPLINE
  5
1A8
330
1F
100
AcDbEntity
  8
0
  6
Continuous
 62
     7
370
    15
100
AcDbSpline
210
0.0
220
0.0
230
1.0
 70
     8
 71
     3
 72
    42
 73
    38
 74
     0
 42
0.00000001
 43
0.00000001
 12
1.0
 22
0.0
 32
0.0
 13
1.0
 23
0.0
 33
0.0
 40
-0.0624999999999896
 40
-0.0624999999999896
 40
0.0
 40
0.0
 40
0.0625000000000108
 40
0.0625000000000108
 40
0.1250000000000215
 40
0.1250000000000215
 40
0.1875000000000323
 40
0.1875000000000323
 40
0.250000000000043
 40
0.250000000000043
 40
0.3125000000000538
 40
0.3125000000000538
 40
0.3750000000000645
 40
0.3750000000000645
 40
0.4375000000000753
 40
0.4375000000000753
 40
0.4687500000000806
 40
0.4687500000000806
 40
0.5000000000000859
 40
0.5000000000000859
 40
0.5625000000000753
 40
0.5625000000000753
 40
0.6250000000000647
 40
0.6250000000000647
 40
0.6875000000000537
 40
0.6875000000000537
 40
0.7500000000000426
 40
0.7500000000000426
 40
0.8125000000000316
 40
0.8125000000000316
 40
0.8437500000000263
 40
0.8437500000000263
 40
0.8750000000000209
 40
0.8750000000000209
 40
0.9375000000000104
 40
0.9375000000000104
 40
1.0
 40
1.0
 40
1.062500000000011
 40
1.062500000000011
 10
675.6981555502934
 20
325.8118921062752
 30
0.0
 10
675.3677187164437
 20
325.8118921062752
 30
0.0
 10
675.2055996221886
 20
325.8388694076846
 30
0.0
 10
674.9028704287247
 20
325.9434072567381
 30
0.0
 10
674.7642379170496
 20
326.0209174545856
 30
0.0
 10
674.5337004920823
 20
326.2147769338054
 30
0.0
 10
674.4405781200178
 20
326.3325946933215
 30
0.0
 10
674.3158798816348
 20
326.5889769570289
 30
0.0
 10
674.2830252055205
 20
326.7302481103076
 30
0.0
 10
674.2828494242173
 20
327.0127329528097
 30
0.0
 10
674.3152080450254
 20
327.1558441830022
 30
0.0
 10
674.4403931035777
 20
327.4221558644639
 30
0.0
 10
674.5320035017197
 20
327.5442820327267
 30
0.0
 10
674.7652684500264
 20
327.7523876008217
 30
0.0
 10
674.902794374864
 20
327.8346975355606
 30
0.0
 10
675.1299312101917
 20
327.9193620607368
 30
0.0
 10
675.2078457370112
 20
327.9406736220338
 30
0.0
 10
675.3680374479324
 20
327.9695261106585
 30
0.0
 10
675.4508995187006
 20
327.9769290054055
 30
0.0
 10
675.6956598597417
 20
327.9770086164396
 30
0.0
 10
675.8601515500858
 20
327.9474715993315
 30
0.0
 10
676.161092656325
 20
327.8355788045141
 30
0.0
 10
676.3006103247155
 20
327.7520902139999
 30
0.0
 10
676.5313201074406
 20
327.5468477256009
 30
0.0
 10
676.6243647617215
 20
327.4238500213055
 30
0.0
 10
676.7500420509183
 20
327.1578434375858
 30
0.0
 10
676.7827735728027
 20
327.0160471502693
 30
0.0
 10
676.7830994748589
 20
326.7302387842536
 30
0.0
 10
676.7507518105451
 20
326.5908770511978
 30
0.0
 10
676.6567541631392
 20
326.3971034498515
 30
0.0
 10
676.6184080279367
 20
326.3361261505102
 30
0.0
 10
676.5278726900802
 20
326.2211585228047
 30
0.0
 10
676.4751403171498
 20
326.1668863576655
 30
0.0
 10
676.3022824721678
 20
326.0213238877517
 30
0.0
 10
676.162992440728
 20
325.9435321436124
 30
0.0
 10
675.8622935929361
 20
325.83943862144
 30
0.0
 10
675.6981555502934
 20
325.8118921062752
 30
0.0
 10
675.3677187164437
 20
325.8118921062752
 30
0.0
  0
SPLINE
  5
1A9
330
1F
100
AcDbEntity
  8
0
  6
Continuous
 62
     7
370
    15
100
AcDbSpline
210
0.0
220
0.0
230
1.0
 70
     8
 71
     3
 72
    10
 73
     6
 74
     0
 42
0.00000001
 43
0.00000001
 12
1.0
 22
0.0
 32
0.0
 13
1.0
 23
0.0
 33
0.0
 40
0.0
 40
0.0
 40
0.0
 40
0.0
 40
0.4248735854261633
 40
0.8497173922114601
 40
1.0
 40
1.0
 40
1.0
 40
1.0
 10
675.5329380393592
 20
327.3165317173597
 30
0.0
 10
675.6718678342073
 20
327.3288810168436
 30
0.0
 10
675.9497176865594
 20
327.3535787502707
 30
0.0
 10
676.2583131203073
 20
327.480374158596
 30
0.0
 10
676.3791819768519
 20
327.6026194169183
 30
0.0
 10
676.4107654452888
 20
327.6345625441072
 30
0.0
  0
SPLINE
  5
1AA
330
1F
100
AcDbEntity
  8
0
  6
Continuous
 62
     7
370
    15
100
AcDbSpline
210
0.0
220
0.0
230
1.0
 70
     8
 71
     3
 72
    10
 73
     6
 74
     0
 42
0.00000001
 43
0.00000001
 12
1.0
 22
0.0
 32
0.0
 13
1.0
 23
0.0
 33
0.0
 40
0.0
 40
0.0
 40
0.0
 40
0.0
 40
0.2963840973221211
 40
0.7232531831874431
 40
1.0
 40
1.0
 40
1.0
 40
1.0
 10
674.6545741916267
 20
327.6335138748881
 30
0.0
 10
674.7239187094935
 20
327.5759598007172
 30
0.0
 10
674.8931371113475
 20
327.4355131042662
 30
0.0
 10
675.211895485572
 20
327.3348952604069
 30
0.0
 10
675.4423108632584
 20
327.321715566136
 30
0.0
 10
675.5329380393592
 20
327.3165317173597
 30
0.0
  0
LINE
  5
1AB
330
1F
100
AcDbEntity
  8
0
  6
Continuous
 62
     7
370
    15
100
AcDbLine
 10
451.2329334975
 20
383.6927244361
 30
0.0
 11
451.2329334975
 21
393.5875797566
 31
0.0
  0
LINE
  5
1AC
330
1F
100
AcDbEntity
  8
0
  6
Continuous
 62
     7
370
    15
100
AcDbLine
 10
451.2329334975
 20
381.34158197
 30
0.0
 11
451.2329334975
 21
383.6927244361
 31
0.0
  0
LINE
  5
1AD
330
1F
100
AcDbEntity
  8
0
  6
Continuous
 62
     7
370
    15
100
AcDbLine
 10
451.2329334975
 20
355.4365130063
 30
0.0
 11
451.2329334975
 21
381.34158197
 31
0.0
  0
LINE
  5
1AE
330
1F
100
AcDbEntity
  8
0
  6
Continuous
 62
     7
370
    15
100
AcDbLine
 10
451.2329334975
 20
351.6322875317
 30
0.0
 11
451.2329334975
 21
355.4365130063
 31
0.0
  0
LINE
  5
1AF
330
1F
100
AcDbEntity
  8
0
  6
Continuous
 62
     7
370
    15
100
AcDbLine
 10
451.2329334975
 20
319.611860245
 30
0.0
 11
451.2329334975
 21
351.6322875317
 31
0.0
  0
LINE
  5
1B0
330
1F
100
AcDbEntity
  8
0
  6
Continuous
 62
     7
370
    15
100
AcDbLine
 10
451.2329334975
 20
315.8076347705
 30
0.0
 11
451.2329334975
 21
319.611860245
 31
0.0
  0
LINE
  5
1B1
330
1F
100
AcDbEntity
  8
0
  6
Continuous
 62
     7
370
    15
100
AcDbLine
 10
451.2329334975
 20
289.9025658067
 30
0.0
 11
451.2329334975
 21
315.8076347705
 31
0.0
  0
LINE
  5
1B2
330
1F
100
AcDbEntity
  8
0
  6
Continuous
 62
     7
370
    15
100
AcDbLine
 10
451.2329334975
 20
287.5514233406
 30
0.0
 11
451.2329334975
 21
289.9025658067
 31
0.0
  0
LINE
  5
1B3
330
1F
100
AcDbEntity
  8
0
  6
Continuous
 62
     7
370
    15
100
AcDbLine
 10
451.2329334975
 20
277.6565680202
 30
0.0
 11
451.2329334975
 21
287.5514233406
 31
0.0
  0
LINE
  5
1B4
330
1F
100
AcDbEntity
  8
0
  6
Continuous
 62
     7
370
    15
100
AcDbLine
 10
451.2329334975
 20
277.6220755573
 30
0.0
 11
451.2329334975
 21
277.6565680202
 31
0.0
  0
LINE
  5
1B5
330
1F
100
AcDbEntity
  8
0
  6
Continuous
 62
     7
370
    15
100
AcDbLine
 10
451.2329334975
 20
393.5875797566
 30
0.0
 11
451.2329334975
 21
393.6220722194
 31
0.0
  0
LINE
  5
1B6
330
1F
100
AcDbEntity
  8
0
  6
Continuous
 62
     7
370
    15
100
AcDbLine
 10
337.2329371632
 20
393.6220722194
 30
0.0
 11
337.2329371632
 21
277.6220755573
 31
0.0
  0
LWPOLYLINE
  5
1B7
330
1F
100
AcDbEntity
  8
0
  6
Continuous
 62
     7
370
    15
100
AcDbPolyline
 90
        3
 70
   128
 43
0.0
 10
457.3110798956
 20
392.1220729049
 10
455.321901536
 20
392.6016928549
 10
451.2329334975
 20
393.5875797566
  0
SPLINE
  5
1B8
330
1F
100
AcDbEntity
  8
0
  6
Continuous
 62
     7
370
    15
100
AcDbSpline
210
0.0
220
0.0
230
1.0
 70
     8
 71
     3
 72
    16
 73
    12
 74
     0
 42
0.00000001
 43
0.00000001
 12
1.0
 22
0.0
 32
0.0
 13
1.0
 23
0.0
 33
0.0
 40
0.0
 40
0.0
 40
0.0
 40
0.0
 40
0.0022219321196761
 40
0.0196584789998301
 40
0.0438015957932614
 40
0.0880997338779798
 40
0.2319119353242534
 40
0.3808592598883419
 40
0.5310555126172304
 40
0.8358045402198987
 40
0.9999999999999999
 40
0.9999999999999999
 40
0.9999999999999999
 40
0.9999999999999999
 10
465.7543311477272
 20
390.1229107673761
 30
0.0
 10
465.7555171713007
 20
390.1226358463584
 30
0.0
 10
465.7660104799425
 20
390.1202034907491
 30
0.0
 10
465.7210954094767
 20
390.1306346756077
 30
0.0
 10
465.5873398052937
 20
390.1617336850087
 30
0.0
 10
465.07717349572
 20
390.2804503377681
 30
0.0
 10
464.1216617577569
 20
390.5034986906482
 30
0.0
 10
462.8349387625951
 20
390.8055690774805
 30
0.0
 10
461.0496718412252
 20
391.2271243507558
 30
0.0
 10
459.2024640186634
 20
391.6668957482719
 30
0.0
 10
457.8015823304513
 20
392.0040294567554
 30
0.0
 10
457.3110798955528
 20
392.1220729048845
 30
0.0
  0
SPLINE
  5
1B9
330
1F
100
AcDbEntity
  8
0
  6
Continuous
 62
     7
370
    15
100
AcDbSpline
210
0.0
220
0.0
230
1.0
 70
     8
 71
     3
 72
    15
 73
    11
 74
     0
 42
0.00000001
 43
0.00000001
 12
1.0
 22
0.0
 32
0.0
 13
1.0
 23
0.0
 33
0.0
 40
0.0
 40
0.0
 40
0.0
 40
0.0
 40
0.4345447563886615
 40
0.6517101495385702
 40
0.761793060707611
 40
0.8731419682135733
 40
0.9222932390503974
 40
0.9616190381962736
 40
0.9818195825595081
 40
1.0
 40
1.0
 40
1.0
 40
1.0
 10
457.3110798955528
 20
279.1220748718378
 30
0.0
 10
458.6105013372008
 20
279.4339505665649
 30
0.0
 10
460.559313581739
 20
279.9016873247695
 30
0.0
 10
462.814286692808
 20
280.4337544263653
 30
0.0
 10
464.0867143024562
 20
280.7323473018823
 30
0.0
 10
464.8516972820322
 20
280.9110900217327
 30
0.0
 10
465.3719488359306
 20
281.032296727141
 30
0.0
 10
465.6145361130648
 20
281.0887404972709
 30
0.0
 10
465.7395021833196
 20
281.1177876890669
 30
0.0
 10
465.749564701669
 20
281.1201283008352
 30
0.0
 10
465.7543311477272
 20
281.1212370093462
 30
0.0
  0
LWPOLYLINE
  5
1BA
330
1F
100
AcDbEntity
  8
0
  6
Continuous
 62
     7
370
    15
100
AcDbPolyline
 90
        3
 70
   128
 43
0.0
 10
451.2329334975
 20
277.6565680202
 10
455.321901536
 20
278.6424549218
 10
457.3110798956
 20
279.1220748718
  0
LINE
  5
1BB
330
1F
100
AcDbEntity
  8
0
  6
Continuous
 62
     7
370
    15
100
AcDbLine
 10
457.3110798956
 20
288.7370416816
 30
0.0
 11
451.2329334975
 21
287.5514233406
 31
0.0
  0
SPLINE
  5
1BC
330
1F
100
AcDbEntity
  8
0
  6
Continuous
 62
     7
370
    15
100
AcDbSpline
210
0.0
220
0.0
230
1.0
 70
     8
 71
     3
 72
    42
 73
    38
 74
     0
 42
0.00000001
 43
0.00000001
 12
1.0
 22
0.0
 32
0.0
 13
1.0
 23
0.0
 33
0.0
 40
0.0
 40
0.0
 40
0.0
 40
0.0
 40
0.1250000000000019
 40
0.1250000000000019
 40
0.2500000000000038
 40
0.2500000000000038
 40
0.3125000000000047
 40
0.3125000000000047
 40
0.3750000000000056
 40
0.3750000000000056
 40
0.4062500000000059
 40
0.4062500000000059
 40
0.4375000000000064
 40
0.4375000000000064
 40
0.4687500000000068
 40
0.4687500000000068
 40
0.4843750000000067
 40
0.4843750000000067
 40
0.5000000000000066
 40
0.5000000000000066
 40
0.5156250000000064
 40
0.5156250000000064
 40
0.5312500000000063
 40
0.5312500000000063
 40
0.562500000000005
 40
0.562500000000005
 40
0.5937500000000038
 40
0.5937500000000038
 40
0.6250000000000024
 40
0.6250000000000024
 40
0.6875000000000021
 40
0.6875000000000021
 40
0.7500000000000019
 40
0.7500000000000019
 40
0.875000000000001
 40
0.875000000000001
 40
1.0
 40
1.0
 40
1.0
 40
1.0
 10
457.3110804682233
 20
291.0881842107619
 30
0.0
 10
458.0568764329371
 20
291.2336636102708
 30
0.0
 10
458.8015406505193
 20
291.3642486011667
 30
0.0
 10
460.2883982497308
 20
291.5934555072376
 30
0.0
 10
461.032566533077
 20
291.6925830622975
 30
0.0
 10
462.1385067625915
 20
291.807500090046
 30
0.0
 10
462.5051204901365
 20
291.8400954154272
 30
0.0
 10
463.232718438211
 20
291.8897169563042
 30
0.0
 10
463.5938001689876
 20
291.9070026322054
 30
0.0
 10
464.1283833028861
 20
291.9137674772005
 30
0.0
 10
464.305389421233
 20
291.9127885462852
 30
0.0
 10
464.6557595589715
 20
291.9009968898808
 30
0.0
 10
464.8292127923594
 20
291.8904216474139
 30
0.0
 10
465.1693597081792
 20
291.8511424533138
 30
0.0
 10
465.335087612956
 20
291.8233620024996
 30
0.0
 10
465.5500355586249
 20
291.7513503743062
 30
0.0
 10
465.6164579023176
 20
291.7219348866083
 30
0.0
 10
465.7197093265743
 20
291.6444851287605
 30
0.0
 10
465.7548624553465
 20
291.5956035607659
 30
0.0
 10
465.7606106582756
 20
291.4816697683465
 30
0.0
 10
465.7299333304736
 20
291.4183602761964
 30
0.0
 10
465.6331381923154
 20
291.3015531359987
 30
0.0
 10
465.5678117869261
 20
291.2459429917987
 30
0.0
 10
465.3566926116695
 20
291.091561004498
 30
0.0
 10
465.1916856728787
 20
291.0005930531897
 30
0.0
 10
464.8572022040015
 20
290.8337835506608
 30
0.0
 10
464.6842218258874
 20
290.7571026331292
 30
0.0
 10
464.3320577384735
 20
290.6109823838295
 30
0.0
 10
464.152248519048
 20
290.5415202649002
 30
0.0
 10
463.6105091810534
 20
290.3422090187539
 30
0.0
 10
463.2463894466849
 20
290.2211240901055
 30
0.0
 10
462.5148647393888
 20
289.9920623035885
 30
0.0
 10
462.1473905040293
 20
289.8843606725758
 30
0.0
 10
461.0413453187904
 20
289.5757316644841
 30
0.0
 10
460.2992131749318
 20
289.3890366404503
 30
0.0
 10
458.8082444753683
 20
289.0425092379988
 30
0.0
 10
458.059291164638
 20
288.8829936330378
 30
0.0
 10
457.3110804682233
 20
288.737043201592
 30
0.0
  0
LINE
  5
1BD
330
1F
100
AcDbEntity
  8
0
  6
Continuous
 62
     7
370
    15
100
AcDbLine
 10
451.2329334975
 20
289.9025658067
 30
0.0
 11
457.3110798956
 21
291.0881841477
 31
0.0
  0
LINE
  5
1BE
330
1F
100
AcDbEntity
  8
0
  6
Continuous
 62
     7
370
    15
100
AcDbLine
 10
457.3110798956
 20
316.2605015482
 30
0.0
 11
451.2329334975
 21
315.8076347705
 31
0.0
  0
SPLINE
  5
1BF
330
1F
100
AcDbEntity
  8
0
  6
Continuous
 62
     7
370
    15
100
AcDbSpline
210
0.0
220
0.0
230
1.0
 70
     8
 71
     3
 72
    42
 73
    38
 74
     0
 42
0.00000001
 43
0.00000001
 12
1.0
 22
0.0
 32
0.0
 13
1.0
 23
0.0
 33
0.0
 40
0.0
 40
0.0
 40
0.0
 40
0.0
 40
0.1250000000000012
 40
0.1250000000000012
 40
0.2500000000000023
 40
0.2500000000000023
 40
0.3125000000000029
 40
0.3125000000000029
 40
0.3750000000000035
 40
0.3750000000000035
 40
0.4062500000000038
 40
0.4062500000000038
 40
0.4375000000000041
 40
0.4375000000000041
 40
0.4687500000000044
 40
0.4687500000000044
 40
0.4843750000000043
 40
0.4843750000000043
 40
0.5000000000000043
 40
0.5000000000000043
 40
0.5156250000000043
 40
0.5156250000000043
 40
0.5312500000000044
 40
0.5312500000000044
 40
0.5625000000000043
 40
0.5625000000000043
 40
0.5937500000000043
 40
0.5937500000000043
 40
0.6250000000000042
 40
0.6250000000000042
 40
0.6875000000000042
 40
0.6875000000000042
 40
0.7500000000000041
 40
0.7500000000000041
 40
0.875000000000002
 40
0.875000000000002
 40
1.0
 40
1.0
 40
1.0
 40
1.0
 10
457.3110804682233
 20
320.0647267387674
 30
0.0
 10
458.0569662208111
 20
320.1203016146825
 30
0.0
 10
458.8017195726228
 20
320.1529017504913
 30
0.0
 10
460.2887539659623
 20
320.1686661715307
 30
0.0
 10
461.0330108775606
 20
320.1521829973979
 30
0.0
 10
462.1390789212725
 20
320.0764974678479
 30
0.0
 10
462.5057341130765
 20
320.0427171435588
 30
0.0
 10
463.2334111874201
 20
319.9516882510197
 30
0.0
 10
463.5945307544736
 20
319.8948376006535
 30
0.0
 10
464.1291643127549
 20
319.7804784157167
 30
0.0
 10
464.3061861770174
 20
319.7374503074843
 30
0.0
 10
464.6565835396908
 20
319.6364145769019
 30
0.0
 10
464.8300485649406
 20
319.5787717287417
 30
0.0
 10
465.1702075766823
 20
319.4357783065095
 30
0.0
 10
465.335932054487
 20
319.3521563180589
 30
0.0
 10
465.5507690056996
 20
319.1854385557864
 30
0.0
 10
465.6171490063328
 20
319.1223048146717
 30
0.0
 10
465.7201686154939
 20
318.9728043653568
 30
0.0
 10
465.7551318181117
 20
318.8854513986708
 30
0.0
 10
465.7604051792068
 20
318.6996368035227
 30
0.0
 10
465.7294945620892
 20
318.6044109437969
 30
0.0
 10
465.6324116048821
 20
318.4380386124374
 30
0.0
 10
465.5669998401796
 20
318.3633138788381
 30
0.0
 10
465.3556879843845
 20
318.1627887895384
 30
0.0
 10
465.1906239873474
 20
318.0540866765338
 30
0.0
 10
464.8560385407048
 20
317.8622667820047
 30
0.0
 10
464.6830162414507
 20
317.7786024853212
 30
0.0
 10
464.3307744479744
 20
317.6245284478061
 30
0.0
 10
464.1509298857864
 20
317.5542273757375
 30
0.0
 10
463.6090962600156
 20
317.3586966380054
 30
0.0
 10
463.2449175554501
 20
317.2483022325006
 30
0.0
 10
462.5132781338929
 20
317.0499048024766
 30
0.0
 10
462.1457483122906
 20
316.9623623989532
 30
0.0
 10
461.039539518974
 20
316.7246414409001
 30
0.0
 10
460.2973024645466
 20
316.5989608615576
 30
0.0
 10
458.806128344244
 20
316.3943872417176
 30
0.0
 10
458.0570479820435
 20
316.3160816414138
 30
0.0
 10
457.3110804682233
 20
316.2605006735869
 30
0.0
  0
LINE
  5
1C0
330
1F
100
AcDbEntity
  8
0
  6
Continuous
 62
     7
370
    15
100
AcDbLine
 10
451.2329334975
 20
319.611860245
 30
0.0
 11
457.3110798956
 21
320.0647270228
 31
0.0
  0
LINE
  5
1C1
330
1F
100
AcDbEntity
  8
0
  6
Continuous
 62
     7
370
    15
100
AcDbLine
 10
457.3110798956
 20
351.1794207539
 30
0.0
 11
451.2329334975
 21
351.6322875317
 31
0.0
  0
SPLINE
  5
1C2
330
1F
100
AcDbEntity
  8
0
  6
Continuous
 62
     7
370
    15
100
AcDbSpline
210
0.0
220
0.0
230
1.0
 70
     8
 71
     3
 72
    40
 73
    36
 74
     0
 42
0.00000001
 43
0.00000001
 12
1.0
 22
0.0
 32
0.0
 13
1.0
 23
0.0
 33
0.0
 40
0.0
 40
0.0
 40
0.0
 40
0.0
 40
0.1250000000000019
 40
0.1250000000000019
 40
0.2500000000000037
 40
0.2500000000000037
 40
0.3125000000000046
 40
0.3125000000000046
 40
0.3750000000000054
 40
0.3750000000000054
 40
0.4062500000000059
 40
0.4062500000000059
 40
0.4375000000000064
 40
0.4375000000000064
 40
0.4687500000000069
 40
0.4687500000000069
 40
0.4843750000000071
 40
0.4843750000000071
 40
0.5000000000000073
 40
0.5000000000000073
 40
0.5156250000000075
 40
0.5156250000000075
 40
0.5312500000000078
 40
0.5312500000000078
 40
0.5625000000000072
 40
0.5625000000000072
 40
0.6250000000000063
 40
0.6250000000000063
 40
0.6875000000000053
 40
0.6875000000000053
 40
0.7500000000000043
 40
0.7500000000000043
 40
0.8750000000000022
 40
0.8750000000000022
 40
1.0
 40
1.0
 40
1.0
 40
1.0
 10
457.3110804682233
 20
354.9836471031366
 30
0.0
 10
458.0632543014311
 20
354.9276037113679
 30
0.0
 10
458.8149456665434
 20
354.8488694903691
 30
0.0
 10
460.3172464285346
 20
354.6421260525784
 30
0.0
 10
461.0679146472644
 20
354.5145235747467
 30
0.0
 10
462.1848106753979
 20
354.272792730243
 30
0.0
 10
462.5558384253991
 20
354.1836930257226
 30
0.0
 10
463.2942587149738
 20
353.9813436509235
 30
0.0
 10
463.6617408416946
 20
353.8684563561807
 30
0.0
 10
464.202704609655
 20
353.6700029339267
 30
0.0
 10
464.3814588240912
 20
353.598896541247
 30
0.0
 10
464.7340869021844
 20
353.4412769122262
 30
0.0
 10
464.9079402419093
 20
353.3550512411031
 30
0.0
 10
465.2402347547565
 20
353.1576594774586
 30
0.0
 10
465.4025286234536
 20
353.0464860661527
 30
0.0
 10
465.605920182465
 20
352.8366420995183
 30
0.0
 10
465.6659165796192
 20
352.7601549630032
 30
0.0
 10
465.7487169992369
 20
352.5861805243671
 30
0.0
 10
465.767023904701
 20
352.4905593316401
 30
0.0
 10
465.7391177480761
 20
352.3092144403882
 30
0.0
 10
465.6947705612268
 20
352.2260674282765
 30
0.0
 10
465.582156067875
 20
352.086274924161
 30
0.0
 10
465.5128203927939
 20
352.0262546553125
 30
0.0
 10
465.2935873656193
 20
351.8686218678015
 30
0.0
 10
465.1304653047797
 20
351.7895719845591
 30
0.0
 10
464.6224753145358
 20
351.5831271307855
 30
0.0
 10
464.2698152517162
 20
351.492320862878
 30
0.0
 10
463.5550875576839
 20
351.3424713035574
 30
0.0
 10
463.1921362638099
 20
351.286370176722
 30
0.0
 10
462.4596020384713
 20
351.196703663714
 30
0.0
 10
462.0919343459971
 20
351.1637416396978
 30
0.0
 10
460.9900325099249
 20
351.0905255531093
 30
0.0
 10
460.2547905790906
 20
351.0752698525465
 30
0.0
 10
458.7835210359801
 20
351.0920314071013
 30
0.0
 10
458.0474808319873
 20
351.124552904736
 30
0.0
 10
457.3110804682233
 20
351.179421037956
 30
0.0
  0
LINE
  5
1C3
330
1F
100
AcDbEntity
  8
0
  6
Continuous
 62
     7
370
    15
100
AcDbLine
 10
451.2329334975
 20
355.4365130063
 30
0.0
 11
457.3110798956
 21
354.9836462285
 31
0.0
  0
LINE
  5
1C4
330
1F
100
AcDbEntity
  8
0
  6
Continuous
 62
     7
370
    15
100
AcDbLine
 10
457.3110798956
 20
380.1559636291
 30
0.0
 11
451.2329334975
 21
381.34158197
 31
0.0
  0
SPLINE
  5
1C5
330
1F
100
AcDbEntity
  8
0
  6
Continuous
 62
     7
370
    15
100
AcDbSpline
210
0.0
220
0.0
230
1.0
 70
     8
 71
     3
 72
    42
 73
    38
 74
     0
 42
0.00000001
 43
0.00000001
 12
1.0
 22
0.0
 32
0.0
 13
1.0
 23
0.0
 33
0.0
 40
0.0
 40
0.0
 40
0.0
 40
0.0
 40
0.1250000000000029
 40
0.1250000000000029
 40
0.2500000000000058
 40
0.2500000000000058
 40
0.3125000000000061
 40
0.3125000000000061
 40
0.3750000000000064
 40
0.3750000000000064
 40
0.4062500000000068
 40
0.4062500000000068
 40
0.4375000000000072
 40
0.4375000000000072
 40
0.4687500000000076
 40
0.4687500000000076
 40
0.4843750000000075
 40
0.4843750000000075
 40
0.5000000000000074
 40
0.5000000000000074
 40
0.5156250000000073
 40
0.5156250000000073
 40
0.5312500000000072
 40
0.5312500000000072
 40
0.5625000000000067
 40
0.5625000000000067
 40
0.593750000000006
 40
0.593750000000006
 40
0.6250000000000054
 40
0.6250000000000054
 40
0.6875000000000046
 40
0.6875000000000046
 40
0.7500000000000037
 40
0.7500000000000037
 40
0.8750000000000019
 40
0.8750000000000019
 40
1.0
 40
1.0
 40
1.0
 40
1.0
 10
457.3110804682233
 20
382.5071045751311
 30
0.0
 10
458.0568715489824
 20
382.3616261283155
 30
0.0
 10
458.8015306193902
 20
382.2030824616214
 30
0.0
 10
460.2883773674544
 20
381.8577446973035
 30
0.0
 10
461.032539680204
 20
381.6707024435101
 30
0.0
 10
462.138473480359
 20
381.3623591513218
 30
0.0
 10
462.505084793225
 20
381.2549853713797
 30
0.0
 10
463.2326772414422
 20
381.0274747010538
 30
0.0
 10
463.5937558872407
 20
380.9075607895784
 30
0.0
 10
464.1283337309146
 20
380.7116729513331
 30
0.0
 10
464.3053379733988
 20
380.6436731644575
 30
0.0
 10
464.6557041200207
 20
380.4993715710638
 30
0.0
 10
464.829155223086
 20
380.4232737188789
 30
0.0
 10
465.1692977963922
 20
380.2556475895743
 30
0.0
 10
465.3350341445622
 20
380.1654054570907
 30
0.0
 10
465.5499928708237
 20
380.0124570048264
 30
0.0
 10
465.6164166363143
 20
379.9580475617877
 30
0.0
 10
465.7196846114778
 20
379.8417503320699
 30
0.0
 10
465.7548483888588
 20
379.7796477573391
 30
0.0
 10
465.7606212495269
 20
379.6635512526885
 30
0.0
 10
465.7299549609322
 20
379.6117702704472
 30
0.0
 10
465.633172154566
 20
379.5313708281781
 30
0.0
 10
465.5678486265439
 20
379.5003409037734
 30
0.0
 10
465.3567349621576
 20
379.4254424606351
 30
0.0
 10
465.191727634535
 20
379.3966549767799
 30
0.0
 10
464.8572423204371
 20
379.3560445696684
 30
0.0
 10
464.6842616014584
 20
379.34469970179
 30
0.0
 10
464.3320978365138
 20
379.3317538318672
 30
0.0
 10
464.1522897186587
 20
379.3303667385646
 30
0.0
 10
463.6105417597224
 20
379.3364039916802
 30
0.0
 10
463.2464176273418
 20
379.3536669549521
 30
0.0
 10
462.5148857742623
 20
379.4032213458152
 30
0.0
 10
462.1474088140233
 20
379.435813948095
 30
0.0
 10
461.0413573396659
 20
379.5504719952892
 30
0.0
 10
460.2992234851886
 20
379.6491511871057
 30
0.0
 10
458.8082550627458
 20
379.8787379222468
 30
0.0
 10
458.05929614154
 20
380.0100121636913
 30
0.0
 10
457.3110804682233
 20
380.1559635659612
 30
0.0
  0
LINE
  5
1C6
330
1F
100
AcDbEntity
  8
0
  6
Continuous
 62
     7
370
    15
100
AcDbLine
 10
451.2329334975
 20
383.6927244361
 30
0.0
 11
457.3110798956
 21
382.5071060951
 31
0.0
  0
LINE
  5
1C7
330
1F
100
AcDbEntity
  8
0
  6
Continuous
 62
     7
370
    15
100
AcDbLine
 10
484.4329367042
 20
335.6220738884
 30
0.0
 11
484.4329367042
 21
385.6220746334
 31
0.0
  0
LINE
  5
1C8
330
1F
100
AcDbEntity
  8
0
  6
Continuous
 62
     7
370
    15
100
AcDbLine
 10
484.4329367042
 20
285.6220731433
 30
0.0
 11
484.4329367042
 21
335.6220738884
 31
0.0
  0
LINE
  5
1C9
330
1F
100
AcDbEntity
  8
0
  6
Continuous
 62
     7
370
    15
100
AcDbLine
 10
336.2329369993
 20
278.6220738586
 30
0.0
 11
336.2329369993
 21
392.6220739182
 31
0.0
  0
LINE
  5
1CA
330
1F
100
AcDbEntity
  8
0
  6
Continuous
 62
     7
370
    15
100
AcDbLine
 10
457.3110798956
 20
316.2605015482
 30
0.0
 11
451.2329334975
 21
316.2605015482
 31
0.0
  0
LINE
  5
1CB
330
1F
100
AcDbEntity
  8
0
  6
Continuous
 62
     7
370
    15
100
AcDbLine
 10
457.3110798956
 20
354.9836462285
 30
0.0
 11
451.2329334975
 21
354.9836462285
 31
0.0
  0
LINE
  5
1CC
330
1F
100
AcDbEntity
  8
0
  6
Continuous
 62
     7
370
    15
100
AcDbLine
 10
457.3110798956
 20
288.7370416816
 30
0.0
 11
451.2329334975
 21
288.7370416816
 31
0.0
  0
LINE
  5
1CD
330
1F
100
AcDbEntity
  8
0
  6
Continuous
 62
     7
370
    15
100
AcDbLine
 10
457.3110798956
 20
382.5071060951
 30
0.0
 11
451.2329334975
 21
382.5071060951
 31
0.0
  0
LINE
  5
1CE
330
1F
100
AcDbEntity
  8
0
  6
Continuous
 62
     8
370
    15
100
AcDbLine
 10
505.7719359756
 20
285.6220731433
 30
0.0
 11
505.7719359756
 21
385.6220746334
 31
0.0
  0
DIMENSION
  5
1CF
330
1F
100
AcDbEntity
  8
RIQUADRO
100
AcDbDimension
  2
_D
 10
714.2329371334
 20
351.6220738884
 30
0.1
 11
714.2329371334
 21
455.0519350241
 31
0.0
 70
   102
  1
<>
 71
     5
 42
-1.0
  3
SLDDIMSTYLE0
100
AcDbOrdinateDimension
 13
714.2329371334
 23
351.6220738884
 33
0.1
 14
714.2329371334
 24
449.6220738884
 34
0.1
  0
DIMENSION
  5
1DE
330
1F
100
AcDbEntity
  8
RIQUADRO
100
AcDbDimension
  2
_D_1
 10
714.2329371334
 20
351.6220738884
 30
0.1
 11
669.6329371334
 21
464.1033240851
 31
0.0
 70
   102
  1
<>
 71
     5
 42
-1.0
  3
SLDDIMSTYLE1
100
AcDbOrdinateDimension
 13
669.6329371334
 23
354.5220738884
 33
0.1
 14
669.6329371334
 24
449.6220738884
 34
0.1
  0
DIMENSION
  5
1EE
330
1F
100
AcDbEntity
  8
RIQUADRO
100
AcDbDimension
  2
_D_2
 10
714.2329371334
 20
351.6220738884
 30
0.1
 11
629.6329371334
 21
464.1033240851
 31
0.0
 70
   102
  1
<>
 71
     5
 42
-1.0
  3
SLDDIMSTYLE1
100
AcDbOrdinateDimension
 13
629.6329371334
 23
354.5220738884
 33
0.1
 14
629.6329371334
 24
449.6220738884
 34
0.1
  0
DIMENSION
  5
1F6
330
1F
100
AcDbEntity
  8
RIQUADRO
100
AcDbDimension
  2
_D_3
 10
714.2329371334
 20
351.6220738884
 30
0.1
 11
507.7719323102
 21
466.6894355114
 31
0.0
 70
   102
  1
<>
 71
     5
 42
-1.0
  3
SLDDIMSTYLE1
100
AcDbOrdinateDimension
 13
507.7719323102
 23
383.6220738884
 33
0.1
 14
507.7719323102
 24
449.6220738884
 34
0.1
  0
DIMENSION
  5
1FE
330
1F
100
AcDbEntity
  8
RIQUADRO
100
AcDbDimension
  2
_D_4
 10
714.2329371334
 20
351.6220738884
 30
0.1
 11
484.4329371334
 21
466.6894355114
 31
0.0
 70
   102
  1
<>
 71
     5
 42
-1.0
  3
SLDDIMSTYLE1
100
AcDbOrdinateDimension
 13
484.4329371334
 23
385.6220738884
 33
0.1
 14
484.4329371334
 24
449.6220738884
 34
0.1
  0
DIMENSION
  5
206
330
1F
100
AcDbEntity
  8
RIQUADRO
100
AcDbDimension
  2
_D_5
 10
714.2329371334
 20
351.6220738884
 30
0.1
 11
451.2329371334
 21
460.2241569455
 31
0.0
 70
   102
  1
<>
 71
     5
 42
-1.0
  3
SLDDIMSTYLE1
100
AcDbOrdinateDimension
 13
451.2329371334
 23
393.5875808731
 33
0.1
 14
451.2329371334
 24
449.6220738884
 34
0.1
  0
DIMENSION
  5
20E
330
1F
100
AcDbEntity
  8
RIQUADRO
100
AcDbDimension
  2
_D_6
 10
714.2329371334
 20
351.6220738884
 30
0.1
 11
336.2329371334
 21
460.2241569455
 31
0.0
 70
   102
  1
<>
 71
     5
 42
-1.0
  3
SLDDIMSTYLE1
100
AcDbOrdinateDimension
 13
336.2329371334
 23
392.6220738884
 33
0.1
 14
336.2329371334
 24
449.6220738884
 34
0.1
  0
DIMENSION
  5
216
330
1F
100
AcDbEntity
  8
RIQUADRO
100
AcDbDimension
  2
_D_7
 10
714.2329371334
 20
351.6220738884
 30
0.1
 11
729.3034069237
 21
455.0519350241
 31
0.0
 70
   102
  1
<>
 71
     5
 42
-1.0
  3
SLDDIMSTYLE1
100
AcDbOrdinateDimension
 13
718.2329371334
 23
348.3220738884
 33
0.1
 14
729.3034069237
 24
449.6220738884
 34
0.1
  0
DIMENSION
  5
220
330
1F
100
AcDbEntity
  8
RIQUADRO
100
AcDbDimension
  2
_D_8
 10
714.2329371334
 20
351.6220738884
 30
0.1
 11
749.1824327246
 21
461.5172126587
 31
0.0
 70
   102
  1
<>
 71
     5
 42
-1.0
  3
SLDDIMSTYLE1
100
AcDbOrdinateDimension
 13
721.8329371334
 23
346.3720738884
 33
0.1
 14
749.1824327246
 24
449.6220738884
 34
0.1
  0
DIMENSION
  5
22A
330
1F
100
AcDbEntity
  8
RIQUADRO
100
AcDbDimension
  2
_D_9
 10
765.8329371334
 20
322.9220738884
 30
0.0
 11
765.8329371334
 21
265.370820448
 31
0.0
 70
   160
  1
C Mount\P1/32 TPI\P(%%c<>)
 71
     2
 42
-1.0
  3
SLDDIMSTYLE2
100
AcDbAlignedDimension
 13
718.2329371334
 23
348.3220738884
 33
0.0
 14
718.2329371334
 24
322.9220738884
 34
0.0
 50
90.0
100
AcDbRotatedDimension
  0
DIMENSION
  5
23B
330
1F
100
AcDbEntity
  8
RIQUADRO
100
AcDbDimension
  2
_D_10
 10
292.2329371334
 20
277.6220738884
 30
0.0
 11
292.2329371334
 21
334.8801381662
 31
0.0
 70
   160
  1
%%c<>h8\PClamping Diameter
 71
     2
 42
-1.0
  3
SLDDIMSTYLE3
100
AcDbAlignedDimension
 13
337.2329371334
 23
393.6220738884
 33
0.0
 14
337.2329371334
 24
277.6220738884
 34
0.0
 50
90.0
100
AcDbRotatedDimension
  0
DIMENSION
  5
24F
330
1F
100
AcDbEntity
  8
RIQUADRO
100
AcDbDimension
  2
_D_11
 10
641.3884680284
 20
316.7220738884
 30
0.0
 11
641.3884680284
 21
245.6220738884
 31
0.0
 70
   160
  1
%%c<>h8\PClamping Diameter
 71
     2
 42
-1.0
  3
SLDDIMSTYLE4
100
AcDbAlignedDimension
 13
629.6329371334
 23
354.5220738884
 33
0.0
 14
629.6329371334
 24
316.7220738884
 34
0.0
 50
90.0
100
AcDbRotatedDimension
  0
LINE
  5
260
330
1F
100
AcDbEntity
  8
0
  6
Continuous
 62
     7
370
    15
100
AcDbLine
 10
161.6505349278
 20
355.3720747973
 30
0.0
 11
161.6505349278
 21
352.3253666158
 31
0.0
  0
LINE
  5
261
330
1F
100
AcDbEntity
  8
0
  6
Continuous
 62
     7
370
    15
100
AcDbLine
 10
164.1505348719
 20
352.3265065547
 30
0.0
 11
164.1505348719
 21
355.3720747973
 31
0.0
  0
LINE
  5
262
330
1F
100
AcDbEntity
  8
0
  6
Continuous
 62
     7
370
    15
100
AcDbLine
 10
177.3922680635
 20
325.8118925537
 30
0.0
 11
177.3932114932
 21
325.81134773
 31
0.0
  0
LINE
  5
263
330
1F
100
AcDbEntity
  8
0
  6
Continuous
 62
     7
370
    15
100
AcDbLine
 10
147.1588010657
 20
327.9769558381
 30
0.0
 11
147.1578585673
 21
327.9764110144
 31
0.0
  0
CIRCLE
  5
264
330
1F
100
AcDbEntity
  8
0
  6
Continuous
 62
     7
370
    15
100
AcDbCircle
 10
162.9005348999
 20
335.6220738884
 30
0.0
 40
10.74999999999997
  0
CIRCLE
  5
265
330
1F
100
AcDbEntity
  8
0
  6
Continuous
 62
     7
370
    15
100
AcDbCircle
 10
162.9005348999
 20
335.6220738884
 30
0.0
 40
7.749999999999972
  0
CIRCLE
  5
266
330
1F
100
AcDbEntity
  8
0
  6
Continuous
 62
     7
370
    15
100
AcDbCircle
 10
162.9005348999
 20
335.6220738884
 30
0.0
 40
11.25
  0
CIRCLE
  5
267
330
1F
100
AcDbEntity
  8
0
  6
Continuous
 62
     7
370
    15
100
AcDbCircle
 10
162.9005348999
 20
335.6220738884
 30
0.0
 40
12.70000000000002
  0
CIRCLE
  5
268
330
1F
100
AcDbEntity
  8
0
  6
Continuous
 62
     7
370
    15
100
AcDbCircle
 10
162.9005348999
 20
335.6220738884
 30
0.0
 40
16.0
  0
ARC
  5
269
330
1F
100
AcDbEntity
  8
0
  6
Continuous
 62
     7
370
    15
100
AcDbCircle
 10
162.9005348999
 20
352.1220738884
 30
0.0
 40
0.5000000000000203
100
AcDbArc
 50
270.0
 51
29.2509930578
  0
ARC
  5
26A
330
1F
100
AcDbEntity
  8
0
  6
Continuous
 62
     7
370
    15
100
AcDbCircle
 10
162.9005348999
 20
352.1220738884
 30
0.0
 40
0.5000000000000699
100
AcDbArc
 50
150.7490069422
 51
270.0
  0
ARC
  5
26B
330
1F
100
AcDbEntity
  8
0
  6
Continuous
 62
     7
370
    15
100
AcDbCircle
 10
162.9005348999
 20
335.6220738884
 30
0.0
 40
16.75000000000006
100
AcDbArc
 50
91.4924031875
 51
88.5075968125
  0
LWPOLYLINE
  5
26C
330
1F
100
AcDbEntity
  8
0
  6
Continuous
 62
     7
370
    15
100
AcDbPolyline
 90
        3
 70
   128
 43
0.0
 10
163.3647670436
 20
352.3656388666
 10
162.9005348999
 20
352.3720743056
 10
162.4762938639
 20
352.3667005743
  0
LINE
  5
26D
330
1F
100
AcDbEntity
  8
0
  6
Continuous
 62
     7
370
    15
100
AcDbLine
 10
161.6505349278
 20
355.3720747973
 30
0.0
 11
164.1505348719
 21
355.3720747973
 31
0.0
  0
CIRCLE
  5
26E
330
1F
100
AcDbEntity
  8
0
  6
Continuous
 62
     7
370
    15
100
AcDbCircle
 10
162.9005348999
 20
335.6220738884
 30
0.0
 40
47.99999999999997
  0
CIRCLE
  5
26F
330
1F
100
AcDbEntity
  8
0
  6
Continuous
 62
     7
370
    15
100
AcDbCircle
 10
162.9005348999
 20
335.6220738884
 30
0.0
 40
49.99999999999997
  0
ARC
  5
270
330
1F
100
AcDbEntity
  8
0
  6
Continuous
 62
     7
370
    15
100
AcDbCircle
 10
162.9005348999
 20
335.6220738884
 30
0.0
 40
17.50000000000009
100
AcDbArc
 50
94.0960437582
 51
180.0
  0
ARC
  5
271
330
1F
100
AcDbEntity
  8
0
  6
Continuous
 62
     7
370
    15
100
AcDbCircle
 10
162.9005348999
 20
335.6220738884
 30
0.0
 40
17.50000000000009
100
AcDbArc
 50
180.0
 51
85.9039562418
  0
ARC
  5
272
330
1F
100
AcDbEntity
  8
0
  6
Continuous
 62
     7
370
    15
100
AcDbCircle
 10
162.9005348999
 20
335.6220738884
 30
0.0
 40
18.90000000000001
100
AcDbArc
 50
93.7921714463
 51
180.0
  0
ARC
  5
273
330
1F
100
AcDbEntity
  8
0
  6
Continuous
 62
     7
370
    15
100
AcDbCircle
 10
162.9005348999
 20
335.6220738884
 30
0.0
 40
18.90000000000001
100
AcDbArc
 50
180.0
 51
86.2078285537
  0
CIRCLE
  5
274
330
1F
100
AcDbEntity
  8
0
  6
Continuous
 62
     7
370
    15
100
AcDbCircle
 10
162.9005348999
 20
335.6220738884
 30
0.0
 40
46.50000000000001
  0
ARC
  5
275
330
1F
100
AcDbEntity
  8
0
  6
Continuous
 62
     7
370
    15
100
AcDbCircle
 10
162.9005348999
 20
335.6220738884
 30
0.0
 40
58.00000000000004
100
AcDbArc
 50
91.9761082857
 51
124.0238917143
  0
LINE
  5
276
330
1F
100
AcDbEntity
  8
0
  6
Continuous
 62
     7
370
    15
100
AcDbLine
 10
160.9005348049
 20
392.1220729049
 30
0.0
 11
160.9005348049
 21
393.5875797566
 31
0.0
  0
SPLINE
  5
277
330
1F
100
AcDbEntity
  8
0
  6
Continuous
 62
     7
370
    15
100
AcDbSpline
210
0.0
220
0.0
230
1.0
 70
     8
 71
     3
 72
    42
 73
    38
 74
     0
 42
0.00000001
 43
0.00000001
 12
1.0
 22
0.0
 32
0.0
 13
1.0
 23
0.0
 33
0.0
 40
0.0
 40
0.0
 40
0.0
 40
0.0
 40
0.1249999999999959
 40
0.1249999999999959
 40
0.2499999999999917
 40
0.2499999999999917
 40
0.3124999999999908
 40
0.3124999999999908
 40
0.3749999999999898
 40
0.3749999999999898
 40
0.4062499999999893
 40
0.4062499999999893
 40
0.4374999999999888
 40
0.4374999999999888
 40
0.4687499999999884
 40
0.4687499999999884
 40
0.484374999999989
 40
0.484374999999989
 40
0.4999999999999896
 40
0.4999999999999896
 40
0.5156249999999901
 40
0.5156249999999901
 40
0.5312499999999908
 40
0.5312499999999908
 40
0.5624999999999917
 40
0.5624999999999917
 40
0.5937499999999927
 40
0.5937499999999927
 40
0.6249999999999937
 40
0.6249999999999937
 40
0.6874999999999954
 40
0.6874999999999954
 40
0.7499999999999973
 40
0.7499999999999973
 40
0.8749999999999987
 40
0.8749999999999987
 40
1.0
 40
1.0
 40
1.0
 40
1.0
 10
164.9005348998692
 20
392.1220738883612
 30
0.0
 10
164.9005348998692
 20
391.9422532402422
 30
0.0
 10
164.876751289895
 20
391.763563035334
 30
0.0
 10
164.7779641767102
 20
391.4084769696421
 30
0.0
 10
164.7031797165048
 20
391.2316152792959
 30
0.0
 10
164.5386430355786
 20
390.9700266006715
 30
0.0
 10
164.47503335276
 20
390.8835211203908
 30
0.0
 10
164.3237139402277
 20
390.7122441978357
 30
0.0
 10
164.2364145352948
 20
390.6274502312661
 30
0.0
 10
164.0755407029417
 20
390.5022035441919
 30
0.0
 10
164.0168654525908
 20
390.4607821463711
 30
0.0
 10
163.8840890407746
 20
390.3788856005242
 30
0.0
 10
163.8103632638453
 20
390.3383897781145
 30
0.0
 10
163.6343686636472
 20
390.2590643166785
 30
0.0
 10
163.5339745684252
 20
390.2204586898088
 30
0.0
 10
163.3426209229667
 20
390.1704318893131
 30
0.0
 10
163.271322446436
 20
390.1549819074064
 30
0.0
 10
163.1065184167176
 20
390.1309673977353
 30
0.0
 10
163.0121124267031
 20
390.1227934894623
 30
0.0
 10
162.8164473471896
 20
390.1214487507104
 30
0.0
 10
162.718537963489
 20
390.1285745312773
 30
0.0
 10
162.5507763557448
 20
390.1510762900984
 30
0.0
 10
162.4770720052443
 20
390.166268591982
 30
0.0
 10
162.2820251576715
 20
390.2153944657308
 30
0.0
 10
162.1801509110122
 20
390.2538256752482
 30
0.0
 10
162.003702054464
 20
390.331823815158
 30
0.0
 10
161.9288210652399
 20
390.3722044094687
 30
0.0
 10
161.7935087859906
 20
390.4545115498682
 30
0.0
 10
161.73324029845
 20
390.4965842219424
 30
0.0
 10
161.5688251088073
 20
390.6235004330591
 30
0.0
 10
161.4805063770017
 20
390.7090058045164
 30
0.0
 10
161.3278044260691
 20
390.8812027136946
 30
0.0
 10
161.2639116230382
 20
390.9679102481785
 30
0.0
 10
161.0989072785798
 20
391.2295181486192
 30
0.0
 10
161.0240359415418
 20
391.4058896286173
 30
0.0
 10
160.9245598352175
 20
391.7619478293438
 30
0.0
 10
160.9005348998692
 20
391.9416673443845
 30
0.0
 10
160.9005348998692
 20
392.1220738883612
 30
0.0
  0
LINE
  5
278
330
1F
100
AcDbEntity
  8
0
  6
Continuous
 62
     7
370
    15
100
AcDbLine
 10
164.9005349949
 20
393.5875797566
 30
0.0
 11
164.9005349949
 21
392.1220729049
 31
0.0
  0
ARC
  5
279
330
1F
100
AcDbEntity
  8
0
  6
Continuous
 62
     7
370
    15
100
AcDbCircle
 10
162.9005348999
 20
335.6220738884
 30
0.0
 40
58.00000000000003
100
AcDbArc
 50
55.9761082857
 51
88.0238917143
  0
LINE
  5
27A
330
1F
100
AcDbEntity
  8
0
  6
Continuous
 62
     7
370
    15
100
AcDbLine
 10
194.4923675377
 20
382.5071060951
 30
0.0
 11
195.3537701387
 21
383.6927244361
 31
0.0
  0
SPLINE
  5
27B
330
1F
100
AcDbEntity
  8
0
  6
Continuous
 62
     7
370
    15
100
AcDbSpline
210
0.0
220
0.0
230
1.0
 70
     8
 71
     3
 72
    42
 73
    38
 74
     0
 42
0.00000001
 43
0.00000001
 12
1.0
 22
0.0
 32
0.0
 13
1.0
 23
0.0
 33
0.0
 40
0.0
 40
0.0
 40
0.0
 40
0.0
 40
0.125000000000002
 40
0.125000000000002
 40
0.250000000000004
 40
0.250000000000004
 40
0.3125000000000041
 40
0.3125000000000041
 40
0.3750000000000042
 40
0.3750000000000042
 40
0.4062500000000052
 40
0.4062500000000052
 40
0.4375000000000061
 40
0.4375000000000061
 40
0.468750000000007
 40
0.468750000000007
 40
0.4843750000000075
 40
0.4843750000000075
 40
0.500000000000008
 40
0.500000000000008
 40
0.5156250000000084
 40
0.5156250000000084
 40
0.531250000000009
 40
0.531250000000009
 40
0.5625000000000088
 40
0.5625000000000088
 40
0.5937500000000085
 40
0.5937500000000085
 40
0.6250000000000084
 40
0.6250000000000084
 40
0.6875000000000078
 40
0.6875000000000078
 40
0.7500000000000071
 40
0.7500000000000071
 40
0.8750000000000036
 40
0.8750000000000036
 40
1.0
 40
1.0
 40
1.0
 40
1.0
 10
197.7284356431439
 20
380.1559635659607
 30
0.0
 10
197.622738672452
 20
380.0104841664519
 30
0.0
 10
197.4984643979871
 20
379.879899175556
 30
0.0
 10
197.2098255436697
 20
379.6506922694849
 30
0.0
 10
197.0453642418148
 20
379.5515647144251
 30
0.0
 10
196.7584889011275
 20
379.4366476866766
 30
0.0
 10
196.6561791728482
 20
379.4040523612955
 30
0.0
 10
196.4330804071501
 20
379.3544308204184
 30
0.0
 10
196.3126101658165
 20
379.3371451445172
 30
0.0
 10
196.1088356699274
 20
379.3303802995221
 30
0.0
 10
196.0370168925187
 20
379.3313592304374
 30
0.0
 10
195.8814539987149
 20
379.3431508868418
 30
0.0
 10
195.798001567306
 20
379.3537261293088
 30
0.0
 10
195.6089793140895
 20
379.3930053234089
 30
0.0
 10
195.5050680607436
 20
379.420785774223
 30
0.0
 10
195.3208483514736
 20
379.4927974024165
 30
0.0
 10
195.2540771843771
 20
379.5222128901144
 30
0.0
 10
195.1066307106296
 20
379.5996626479621
 30
0.0
 10
195.0254510827882
 20
379.6485442159569
 30
0.0
 10
194.8663615958565
 20
379.7624780083761
 30
0.0
 10
194.7913532557119
 20
379.8257875005263
 30
0.0
 10
194.6688716784734
 20
379.9425946407239
 30
0.0
 10
194.618179298255
 20
379.998204784924
 30
0.0
 10
194.4892719729646
 20
380.1525867722248
 30
0.0
 10
194.4294482001068
 20
380.243554723533
 30
0.0
 10
194.3325519159122
 20
380.4103642260619
 30
0.0
 10
194.2957090736008
 20
380.4870451435934
 30
0.0
 10
194.2346213099494
 20
380.6331653928931
 30
0.0
 10
194.210593896471
 20
380.7026275118225
 30
0.0
 10
194.1521831338783
 20
380.9019387579688
 30
0.0
 10
194.130991834488
 20
381.0230236866171
 30
0.0
 10
194.1086699509678
 20
381.2520854731342
 30
0.0
 10
194.1079454129778
 20
381.3597871041467
 30
0.0
 10
194.1282242100763
 20
381.6684161122385
 30
0.0
 10
194.1713206148446
 20
381.8551111362723
 30
0.0
 10
194.3001291787287
 20
382.2016385387238
 30
0.0
 10
194.386328470218
 20
382.3611541436848
 30
0.0
 10
194.4923676656441
 20
382.5071045751307
 30
0.0
  0
LINE
  5
27C
330
1F
100
AcDbEntity
  8
0
  6
Continuous
 62
     7
370
    15
100
AcDbLine
 10
198.589840414
 20
381.34158197
 30
0.0
 11
197.7284340877
 21
380.1559636291
 31
0.0
  0
ARC
  5
27D
330
1F
100
AcDbEntity
  8
0
  6
Continuous
 62
     7
370
    15
100
AcDbCircle
 10
162.9005348999
 20
335.6220738884
 30
0.0
 40
58.0
100
AcDbArc
 50
19.9761082857
 51
52.0238917143
  0
LINE
  5
27E
330
1F
100
AcDbEntity
  8
0
  6
Continuous
 62
     7
370
    15
100
AcDbLine
 10
216.017195465
 20
354.9836462285
 30
0.0
 11
217.4109755773
 21
355.4365130063
 31
0.0
  0
SPLINE
  5
27F
330
1F
100
AcDbEntity
  8
0
  6
Continuous
 62
     7
370
    15
100
AcDbSpline
210
0.0
220
0.0
230
1.0
 70
     8
 71
     3
 72
    42
 73
    38
 74
     0
 42
0.00000001
 43
0.00000001
 12
1.0
 22
0.0
 32
0.0
 13
1.0
 23
0.0
 33
0.0
 40
0.0
 40
0.0
 40
0.0
 40
0.0
 40
0.1249999999999954
 40
0.1249999999999954
 40
0.2499999999999909
 40
0.2499999999999909
 40
0.3124999999999886
 40
0.3124999999999886
 40
0.3749999999999863
 40
0.3749999999999863
 40
0.4062499999999863
 40
0.4062499999999863
 40
0.4374999999999865
 40
0.4374999999999865
 40
0.4687499999999865
 40
0.4687499999999865
 40
0.4843749999999866
 40
0.4843749999999866
 40
0.4999999999999866
 40
0.4999999999999866
 40
0.5156249999999866
 40
0.5156249999999866
 40
0.5312499999999866
 40
0.5312499999999866
 40
0.5624999999999866
 40
0.5624999999999866
 40
0.5937499999999867
 40
0.5937499999999867
 40
0.6249999999999868
 40
0.6249999999999868
 40
0.687499999999989
 40
0.687499999999989
 40
0.7499999999999913
 40
0.7499999999999913
 40
0.8749999999999957
 40
0.8749999999999957
 40
1.0
 40
1.0
 40
1.0
 40
1.0
 10
217.2532620592953
 20
351.1794210379553
 30
0.0
 10
217.0822201786113
 20
351.1238461620403
 30
0.0
 10
216.9049022708021
 20
351.0912460262314
 30
0.0
 10
216.5366168142261
 20
351.075481605192
 30
0.0
 10
216.3452736733669
 20
351.0919647793248
 30
0.0
 10
216.0455978253357
 20
351.1676503088748
 30
0.0
 10
215.9436537519644
 20
351.201430633164
 30
0.0
 10
215.7339643764073
 20
351.2924595257031
 30
0.0
 10
215.6263246398266
 20
351.3493101760693
 30
0.0
 10
215.4574610223121
 20
351.4636693610061
 30
0.0
 10
215.3999229024657
 20
351.5066974692385
 30
0.0
 10
215.2809754454597
 20
351.6077331998208
 30
0.0
 10
215.2196628104415
 20
351.6653760479811
 30
0.0
 10
215.0897894755352
 20
351.8083694702132
 30
0.0
 10
215.0220308245113
 20
351.8919914586639
 30
0.0
 10
214.9152909867992
 20
352.0587092209364
 30
0.0
 10
214.8785434596092
 20
352.1218429620511
 30
0.0
 10
214.8047803270133
 20
352.271343411366
 30
0.0
 10
214.7678534331346
 20
352.3586963780519
 30
0.0
 10
214.7061898233735
 20
352.5445109732001
 30
0.0
 10
214.6828026536054
 20
352.6397368329258
 30
0.0
 10
214.6524797433759
 20
352.8061091642854
 30
0.0
 10
214.6441963388046
 20
352.8808338978846
 30
0.0
 10
214.6307451861669
 20
353.0813589871844
 30
0.0
 10
214.6358487342049
 20
353.190061100189
 30
0.0
 10
214.6555595195276
 20
353.381880994718
 30
0.0
 10
214.6708444107252
 20
353.4655452914015
 30
0.0
 10
214.7073452848358
 20
353.6196193289167
 30
0.0
 10
214.7287502808682
 20
353.6899204009852
 30
0.0
 10
214.7986869449793
 20
353.8854511387173
 30
0.0
 10
214.8527368073972
 20
353.9958455442222
 30
0.0
 10
214.9693590871851
 20
354.194242974246
 30
0.0
 10
215.0320979593548
 20
354.2817853777694
 30
0.0
 10
215.2299689556884
 20
354.5195063358227
 30
0.0
 10
215.3746078870679
 20
354.6451869151651
 30
0.0
 10
215.682574599517
 20
354.8497605350051
 30
0.0
 10
215.8461334521343
 20
354.9280661353089
 30
0.0
 10
216.0171940817955
 20
354.9836471031359
 30
0.0
  0
LINE
  5
280
330
1F
100
AcDbEntity
  8
0
  6
Continuous
 62
     7
370
    15
100
AcDbLine
 10
218.6470417995
 20
351.6322875317
 30
0.0
 11
217.2532616872
 21
351.1794207539
 31
0.0
  0
ARC
  5
281
330
1F
100
AcDbEntity
  8
0
  6
Continuous
 62
     7
370
    15
100
AcDbCircle
 10
162.9005348999
 20
335.6220738884
 30
0.0
 40
57.99999999999999
100
AcDbArc
 50
343.9761082857
 51
16.0238917143
  0
LINE
  5
282
330
1F
100
AcDbEntity
  8
0
  6
Continuous
 62
     7
370
    15
100
AcDbLine
 10
217.2532616872
 20
320.0647270228
 30
0.0
 11
218.6470417995
 21
319.611860245
 31
0.0
  0
SPLINE
  5
283
330
1F
100
AcDbEntity
  8
0
  6
Continuous
 62
     7
370
    15
100
AcDbSpline
210
0.0
220
0.0
230
1.0
 70
     8
 71
     3
 72
    40
 73
    36
 74
     0
 42
0.00000001
 43
0.00000001
 12
1.0
 22
0.0
 32
0.0
 13
1.0
 23
0.0
 33
0.0
 40
0.0
 40
0.0
 40
0.0
 40
0.0
 40
0.1249999999999949
 40
0.1249999999999949
 40
0.2499999999999898
 40
0.2499999999999898
 40
0.3124999999999884
 40
0.3124999999999884
 40
0.374999999999987
 40
0.374999999999987
 40
0.4062499999999863
 40
0.4062499999999863
 40
0.4374999999999856
 40
0.4374999999999856
 40
0.4687499999999848
 40
0.4687499999999848
 40
0.4843749999999842
 40
0.4843749999999842
 40
0.4999999999999837
 40
0.4999999999999837
 40
0.5156249999999831
 40
0.5156249999999831
 40
0.5312499999999827
 40
0.5312499999999827
 40
0.5624999999999839
 40
0.5624999999999839
 40
0.6249999999999861
 40
0.6249999999999861
 40
0.6874999999999882
 40
0.6874999999999882
 40
0.7499999999999905
 40
0.7499999999999905
 40
0.8749999999999953
 40
0.8749999999999953
 40
1.0
 40
1.0
 40
1.0
 40
1.0
 10
216.0171940817954
 20
316.2605006735861
 30
0.0
 10
215.8447102575812
 20
316.3165440653549
 30
0.0
 10
215.6806385102468
 20
316.3952782863537
 30
0.0
 10
215.3706062375818
 20
316.6020217241443
 30
0.0
 10
215.2245032513688
 20
316.729624201976
 30
0.0
 10
215.0253201028822
 20
316.9713550464798
 30
0.0
 10
214.9622358330317
 20
317.0604547510001
 30
0.0
 10
214.8452559734673
 20
317.2628041257992
 30
0.0
 10
214.7912222583661
 20
317.375691420542
 30
0.0
 10
214.7224799359033
 20
317.574144842796
 30
0.0
 10
214.7016146700647
 20
317.6452512354758
 30
0.0
 10
214.6661902861268
 20
317.8028708644965
 30
0.0
 10
214.6515435608793
 20
317.8890965356196
 30
0.0
 10
214.6342231232999
 20
318.0864882992641
 30
0.0
 10
214.6306100470233
 20
318.1976617105701
 30
0.0
 10
214.6490361442107
 20
318.4075056772045
 30
0.0
 10
214.6592191043762
 20
318.4839928137195
 30
0.0
 10
214.6955062272302
 20
318.6579672523556
 30
0.0
 10
214.7221021259326
 20
318.7535884450826
 30
0.0
 10
214.7878449454604
 20
318.9349333363344
 30
0.0
 10
214.825699667542
 20
319.0180803484463
 30
0.0
 10
214.8986580463745
 20
319.1578728525618
 30
0.0
 10
214.9351197523422
 20
319.2178931214103
 30
0.0
 10
215.0399927462778
 20
319.3755259089212
 30
0.0
 10
215.1056362210292
 20
319.4545757921636
 30
0.0
 10
215.2973021855242
 20
319.6610206459372
 30
0.0
 10
215.4134883992702
 20
319.7518269138447
 30
0.0
 10
215.6382791569756
 20
319.9016764731653
 30
0.0
 10
215.7461428977691
 20
319.9577776000007
 30
0.0
 10
215.9566264292112
 20
320.0474441130087
 30
0.0
 10
216.0585758692662
 20
320.080406137025
 30
0.0
 10
216.3564676721149
 20
320.1536222236135
 30
0.0
 10
216.5451937626532
 20
320.1688779241763
 30
0.0
 10
216.9092379995064
 20
320.1521163696215
 30
0.0
 10
217.0843953089683
 20
320.1195948719867
 30
0.0
 10
217.2532620592952
 20
320.0647267387668
 30
0.0
  0
LINE
  5
284
330
1F
100
AcDbEntity
  8
0
  6
Continuous
 62
     7
370
    15
100
AcDbLine
 10
217.4109755773
 20
315.8076347705
 30
0.0
 11
216.017195465
 21
316.2605015482
 31
0.0
  0
ARC
  5
285
330
1F
100
AcDbEntity
  8
0
  6
Continuous
 62
     7
370
    15
100
AcDbCircle
 10
162.9005348999
 20
335.6220738884
 30
0.0
 40
58.00000000000001
100
AcDbArc
 50
307.9761082857
 51
340.0238917143
  0
LINE
  5
286
330
1F
100
AcDbEntity
  8
0
  6
Continuous
 62
     7
370
    15
100
AcDbLine
 10
197.7284340877
 20
291.0881841477
 30
0.0
 11
198.589840414
 21
289.9025658067
 31
0.0
  0
SPLINE
  5
287
330
1F
100
AcDbEntity
  8
0
  6
Continuous
 62
     7
370
    15
100
AcDbSpline
210
0.0
220
0.0
230
1.0
 70
     8
 71
     3
 72
    42
 73
    38
 74
     0
 42
0.00000001
 43
0.00000001
 12
1.0
 22
0.0
 32
0.0
 13
1.0
 23
0.0
 33
0.0
 40
0.0
 40
0.0
 40
0.0
 40
0.0
 40
0.1250000000000032
 40
0.1250000000000032
 40
0.2500000000000064
 40
0.2500000000000064
 40
0.312500000000007
 40
0.312500000000007
 40
0.3750000000000077
 40
0.3750000000000077
 40
0.4062500000000083
 40
0.4062500000000083
 40
0.4375000000000088
 40
0.4375000000000088
 40
0.4687500000000094
 40
0.4687500000000094
 40
0.4843750000000105
 40
0.4843750000000105
 40
0.5000000000000117
 40
0.5000000000000117
 40
0.5156250000000128
 40
0.5156250000000128
 40
0.5312500000000138
 40
0.5312500000000138
 40
0.5625000000000139
 40
0.5625000000000139
 40
0.5937500000000141
 40
0.5937500000000141
 40
0.6250000000000142
 40
0.6250000000000142
 40
0.6875000000000124
 40
0.6875000000000124
 40
0.7500000000000107
 40
0.7500000000000107
 40
0.8750000000000053
 40
0.8750000000000053
 40
1.0
 40
1.0
 40
1.0
 40
1.0
 10
194.4923676656438
 20
288.7370432015916
 30
0.0
 10
194.3866713871241
 20
288.8825216484071
 30
0.0
 10
194.3008810208772
 20
289.0410653151012
 30
0.0
 10
194.1720869489355
 20
289.3864030794192
 30
0.0
 10
194.1286322306088
 20
289.5734453332125
 30
0.0
 10
194.1079878302899
 20
289.8817886254008
 30
0.0
 10
194.1086027625386
 20
289.9891624053428
 30
0.0
 10
194.1303495322009
 20
290.2166730756687
 30
0.0
 10
194.1511361448806
 20
290.3365869871441
 30
0.0
 10
194.2076691816526
 20
290.5324748253894
 30
0.0
 10
194.2307921955856
 20
290.6004746122651
 30
0.0
 10
194.2900747831364
 20
290.7447762056588
 30
0.0
 10
194.3259184612949
 20
290.8208740578436
 30
0.0
 10
194.4216786419003
 20
290.9885001871482
 30
0.0
 10
194.4802081729234
 20
291.0787423196317
 30
0.0
 10
194.6056151654759
 20
291.231690771896
 30
0.0
 10
194.6542185496874
 20
291.2861002149348
 30
0.0
 10
194.7734353733135
 20
291.4023974446526
 30
0.0
 10
194.8450081011943
 20
291.4645000193834
 30
0.0
 10
195.0025184056127
 20
291.580596524034
 30
0.0
 10
195.0859141477634
 20
291.6323775062754
 30
0.0
 10
195.2348592623879
 20
291.7127769485444
 30
0.0
 10
195.3034155632267
 20
291.7438068729492
 30
0.0
 10
195.4900834811028
 20
291.8187053160876
 30
0.0
 10
195.595089064835
 20
291.8474927999426
 30
0.0
 10
195.7836825022568
 20
291.8881032070541
 30
0.0
 10
195.8679968831374
 20
291.8994480749326
 30
0.0
 10
196.0258446973315
 20
291.9123939448554
 30
0.0
 10
196.0993324063878
 20
291.913781038158
 30
0.0
 10
196.3069438731926
 20
291.9077437850425
 30
0.0
 10
196.4286529889629
 20
291.8904808217706
 30
0.0
 10
196.6534046696193
 20
291.8409264309074
 30
0.0
 10
196.7560599229893
 20
291.8083338286277
 30
0.0
 10
197.0433193431372
 20
291.6936757814333
 30
0.0
 10
197.2075598308473
 20
291.594996589617
 30
0.0
 10
197.4973232751565
 20
291.3654098544758
 30
0.0
 10
197.6223957423724
 20
291.2341356130313
 30
0.0
 10
197.7284356431435
 20
291.0881842107614
 30
0.0
  0
LINE
  5
288
330
1F
100
AcDbEntity
  8
0
  6
Continuous
 62
     7
370
    15
100
AcDbLine
 10
195.3537701387
 20
287.5514233406
 30
0.0
 11
194.4923675377
 21
288.7370416816
 31
0.0
  0
ARC
  5
289
330
1F
100
AcDbEntity
  8
0
  6
Continuous
 62
     7
370
    15
100
AcDbCircle
 10
162.9005348999
 20
335.6220738884
 30
0.0
 40
58.00000000000003
100
AcDbArc
 50
271.9761082857
 51
304.0238917143
  0
LINE
  5
28A
330
1F
100
AcDbEntity
  8
0
  6
Continuous
 62
     7
370
    15
100
AcDbLine
 10
164.9005349949
 20
279.1220748718
 30
0.0
 11
164.9005349949
 21
277.6565680202
 31
0.0
  0
SPLINE
  5
28B
330
1F
100
AcDbEntity
  8
0
  6
Continuous
 62
     7
370
    15
100
AcDbSpline
210
0.0
220
0.0
230
1.0
 70
     8
 71
     3
 72
    42
 73
    38
 74
     0
 42
0.00000001
 43
0.00000001
 12
1.0
 22
0.0
 32
0.0
 13
1.0
 23
0.0
 33
0.0
 40
0.0
 40
0.0
 40
0.0
 40
0.0
 40
0.1249999999999959
 40
0.1249999999999959
 40
0.2499999999999917
 40
0.2499999999999917
 40
0.3124999999999908
 40
0.3124999999999908
 40
0.3749999999999898
 40
0.3749999999999898
 40
0.4062499999999893
 40
0.4062499999999893
 40
0.4374999999999888
 40
0.4374999999999888
 40
0.4687499999999884
 40
0.4687499999999884
 40
0.484374999999989
 40
0.484374999999989
 40
0.4999999999999896
 40
0.4999999999999896
 40
0.5156249999999901
 40
0.5156249999999901
 40
0.5312499999999908
 40
0.5312499999999908
 40
0.5624999999999917
 40
0.5624999999999917
 40
0.5937499999999927
 40
0.5937499999999927
 40
0.6249999999999937
 40
0.6249999999999937
 40
0.6874999999999954
 40
0.6874999999999954
 40
0.7499999999999973
 40
0.7499999999999973
 40
0.8749999999999987
 40
0.8749999999999987
 40
1.0
 40
1.0
 40
1.0
 40
1.0
 10
160.9005348998692
 20
279.1220738883612
 30
0.0
 10
160.9005348998692
 20
279.3018945364801
 30
0.0
 10
160.9243185098433
 20
279.4805847413884
 30
0.0
 10
161.0231056230282
 20
279.8356708070802
 30
0.0
 10
161.0978900832335
 20
280.0125324974265
 30
0.0
 10
161.2624267641598
 20
280.2741211760508
 30
0.0
 10
161.3260364469783
 20
280.3606266563315
 30
0.0
 10
161.4773558595107
 20
280.5319035788866
 30
0.0
 10
161.5646552644436
 20
280.6166975454562
 30
0.0
 10
161.7255290967967
 20
280.7419442325304
 30
0.0
 10
161.7842043471476
 20
280.7833656303513
 30
0.0
 10
161.9169807589637
 20
280.8652621761981
 30
0.0
 10
161.990706535893
 20
280.9057579986078
 30
0.0
 10
162.1667011360911
 20
280.9850834600439
 30
0.0
 10
162.2670952313132
 20
281.0236890869136
 30
0.0
 10
162.4584488767716
 20
281.0737158874092
 30
0.0
 10
162.5297473533024
 20
281.089165869316
 30
0.0
 10
162.6945513830207
 20
281.113180378987
 30
0.0
 10
162.7889573730353
 20
281.1213542872601
 30
0.0
 10
162.9846224525487
 20
281.122699026012
 30
0.0
 10
163.0825318362494
 20
281.1155732454451
 30
0.0
 10
163.2502934439935
 20
281.093071486624
 30
0.0
 10
163.323997794494
 20
281.0778791847404
 30
0.0
 10
163.5190446420669
 20
281.0287533109915
 30
0.0
 10
163.6209188887262
 20
280.9903221014742
 30
0.0
 10
163.7973677452743
 20
280.9123239615644
 30
0.0
 10
163.8722487344984
 20
280.8719433672536
 30
0.0
 10
164.0075610137478
 20
280.7896362268541
 30
0.0
 10
164.0678295012884
 20
280.7475635547799
 30
0.0
 10
164.2322446909311
 20
280.6206473436633
 30
0.0
 10
164.3205634227366
 20
280.535141972206
 30
0.0
 10
164.4732653736693
 20
280.3629450630277
 30
0.0
 10
164.5371581767002
 20
280.2762375285438
 30
0.0
 10
164.7021625211586
 20
280.0146296281031
 30
0.0
 10
164.7770338581965
 20
279.838258148105
 30
0.0
 10
164.8765099645208
 20
279.4821999473785
 30
0.0
 10
164.9005348998692
 20
279.3024804323379
 30
0.0
 10
164.9005348998692
 20
279.1220738883612
 30
0.0
  0
LINE
  5
28C
330
1F
100
AcDbEntity
  8
0
  6
Continuous
 62
     7
370
    15
100
AcDbLine
 10
160.9005348049
 20
277.6565680202
 30
0.0
 11
160.9005348049
 21
279.1220748718
 31
0.0
  0
ARC
  5
28D
330
1F
100
AcDbEntity
  8
0
  6
Continuous
 62
     7
370
    15
100
AcDbCircle
 10
162.9005348999
 20
335.6220738884
 30
0.0
 40
58.00000000000005
100
AcDbArc
 50
235.9761082857
 51
268.0238917143
  0
LINE
  5
28E
330
1F
100
AcDbEntity
  8
0
  6
Continuous
 62
     7
370
    15
100
AcDbLine
 10
131.3087022621
 20
288.7370416816
 30
0.0
 11
130.4472996611
 21
287.5514233406
 31
0.0
  0
SPLINE
  5
28F
330
1F
100
AcDbEntity
  8
0
  6
Continuous
 62
     7
370
    15
100
AcDbSpline
210
0.0
220
0.0
230
1.0
 70
     8
 71
     3
 72
    42
 73
    38
 74
     0
 42
0.00000001
 43
0.00000001
 12
1.0
 22
0.0
 32
0.0
 13
1.0
 23
0.0
 33
0.0
 40
0.0
 40
0.0
 40
0.0
 40
0.0
 40
0.1250000000000019
 40
0.1250000000000019
 40
0.2500000000000038
 40
0.2500000000000038
 40
0.3125000000000047
 40
0.3125000000000047
 40
0.3750000000000056
 40
0.3750000000000056
 40
0.4062500000000059
 40
0.4062500000000059
 40
0.4375000000000064
 40
0.4375000000000064
 40
0.4687500000000068
 40
0.4687500000000068
 40
0.4843750000000067
 40
0.4843750000000067
 40
0.5000000000000066
 40
0.5000000000000066
 40
0.5156250000000064
 40
0.5156250000000064
 40
0.5312500000000063
 40
0.5312500000000063
 40
0.562500000000005
 40
0.562500000000005
 40
0.5937500000000038
 40
0.5937500000000038
 40
0.6250000000000024
 40
0.6250000000000024
 40
0.6875000000000021
 40
0.6875000000000021
 40
0.7500000000000019
 40
0.7500000000000019
 40
0.875000000000001
 40
0.875000000000001
 40
1.0
 40
1.0
 40
1.0
 40
1.0
 10
128.0726341565941
 20
291.0881842107619
 30
0.0
 10
128.178331127286
 20
291.2336636102708
 30
0.0
 10
128.3026054017509
 20
291.3642486011667
 30
0.0
 10
128.5912442560684
 20
291.5934555072376
 30
0.0
 10
128.7557055579232
 20
291.6925830622975
 30
0.0
 10
129.0425808986105
 20
291.807500090046
 30
0.0
 10
129.1448906268898
 20
291.8400954154272
 30
0.0
 10
129.3679893925879
 20
291.8897169563042
 30
0.0
 10
129.4884596339215
 20
291.9070026322054
 30
0.0
 10
129.6922341298106
 20
291.9137674772005
 30
0.0
 10
129.7640529072193
 20
291.9127885462852
 30
0.0
 10
129.9196158010231
 20
291.9009968898808
 30
0.0
 10
130.003068232432
 20
291.8904216474139
 30
0.0
 10
130.1920904856484
 20
291.8511424533138
 30
0.0
 10
130.2960017389943
 20
291.8233620024996
 30
0.0
 10
130.4802214482644
 20
291.7513503743062
 30
0.0
 10
130.5469926153609
 20
291.7219348866083
 30
0.0
 10
130.6944390891083
 20
291.6444851287605
 30
0.0
 10
130.7756187169498
 20
291.5956035607659
 30
0.0
 10
130.9347082038814
 20
291.4816697683465
 30
0.0
 10
131.009716544026
 20
291.4183602761964
 30
0.0
 10
131.1321981212645
 20
291.3015531359987
 30
0.0
 10
131.182890501483
 20
291.2459429917987
 30
0.0
 10
131.3117978267734
 20
291.091561004498
 30
0.0
 10
131.3716215996312
 20
291.0005930531897
 30
0.0
 10
131.4685178838258
 20
290.8337835506608
 30
0.0
 10
131.5053607261372
 20
290.7571026331292
 30
0.0
 10
131.5664484897886
 20
290.6109823838295
 30
0.0
 10
131.5904759032671
 20
290.5415202649002
 30
0.0
 10
131.6488866658597
 20
290.3422090187539
 30
0.0
 10
131.67007796525
 20
290.2211240901055
 30
0.0
 10
131.6923998487702
 20
289.9920623035885
 30
0.0
 10
131.6931243867602
 20
289.8843606725758
 30
0.0
 10
131.6728455896617
 20
289.5757316644841
 30
0.0
 10
131.6297491848935
 20
289.3890366404503
 30
0.0
 10
131.5009406210093
 20
289.0425092379988
 30
0.0
 10
131.41474132952
 20
288.8829936330378
 30
0.0
 10
131.3087021340939
 20
288.737043201592
 30
0.0
  0
LINE
  5
290
330
1F
100
AcDbEntity
  8
0
  6
Continuous
 62
     7
370
    15
100
AcDbLine
 10
127.2112293858
 20
289.9025658067
 30
0.0
 11
128.0726357121
 21
291.0881841477
 31
0.0
  0
ARC
  5
291
330
1F
100
AcDbEntity
  8
0
  6
Continuous
 62
     7
370
    15
100
AcDbCircle
 10
162.9005348999
 20
335.6220738884
 30
0.0
 40
58.00000000000001
100
AcDbArc
 50
199.9761082857
 51
232.0238917143
  0
LINE
  5
292
330
1F
100
AcDbEntity
  8
0
  6
Continuous
 62
     7
370
    15
100
AcDbLine
 10
109.7838743347
 20
316.2605015482
 30
0.0
 11
108.3900942225
 21
315.8076347705
 31
0.0
  0
SPLINE
  5
293
330
1F
100
AcDbEntity
  8
0
  6
Continuous
 62
     7
370
    15
100
AcDbSpline
210
0.0
220
0.0
230
1.0
 70
     8
 71
     3
 72
    42
 73
    38
 74
     0
 42
0.00000001
 43
0.00000001
 12
1.0
 22
0.0
 32
0.0
 13
1.0
 23
0.0
 33
0.0
 40
0.0
 40
0.0
 40
0.0
 40
0.0
 40
0.1250000000000012
 40
0.1250000000000012
 40
0.2500000000000023
 40
0.2500000000000023
 40
0.3125000000000029
 40
0.3125000000000029
 40
0.3750000000000035
 40
0.3750000000000035
 40
0.4062500000000038
 40
0.4062500000000038
 40
0.4375000000000041
 40
0.4375000000000041
 40
0.4687500000000044
 40
0.4687500000000044
 40
0.4843750000000043
 40
0.4843750000000043
 40
0.5000000000000043
 40
0.5000000000000043
 40
0.5156250000000043
 40
0.5156250000000043
 40
0.5312500000000044
 40
0.5312500000000044
 40
0.5625000000000043
 40
0.5625000000000043
 40
0.5937500000000043
 40
0.5937500000000043
 40
0.6250000000000042
 40
0.6250000000000042
 40
0.6875000000000042
 40
0.6875000000000042
 40
0.7500000000000041
 40
0.7500000000000041
 40
0.875000000000002
 40
0.875000000000002
 40
1.0
 40
1.0
 40
1.0
 40
1.0
 10
108.5478077404429
 20
320.0647267387674
 30
0.0
 10
108.718849621127
 20
320.1203016146825
 30
0.0
 10
108.8961675289361
 20
320.1529017504913
 30
0.0
 10
109.2644529855121
 20
320.1686661715307
 30
0.0
 10
109.4557961263714
 20
320.1521829973979
 30
0.0
 10
109.7554719744025
 20
320.0764974678479
 30
0.0
 10
109.8574160477739
 20
320.0427171435588
 30
0.0
 10
110.067105423331
 20
319.9516882510197
 30
0.0
 10
110.1747451599116
 20
319.8948376006535
 30
0.0
 10
110.3436087774261
 20
319.7804784157167
 30
0.0
 10
110.4011468972726
 20
319.7374503074843
 30
0.0
 10
110.5200943542786
 20
319.6364145769019
 30
0.0
 10
110.5814069892967
 20
319.5787717287417
 30
0.0
 10
110.7112803242031
 20
319.4357783065095
 30
0.0
 10
110.7790389752269
 20
319.3521563180589
 30
0.0
 10
110.885778812939
 20
319.1854385557864
 30
0.0
 10
110.922526340129
 20
319.1223048146717
 30
0.0
 10
110.9962894727249
 20
318.9728043653568
 30
0.0
 10
111.0332163666037
 20
318.8854513986708
 30
0.0
 10
111.0948799763648
 20
318.6996368035227
 30
0.0
 10
111.1182671461328
 20
318.6044109437969
 30
0.0
 10
111.1485900563623
 20
318.4380386124374
 30
0.0
 10
111.1568734609337
 20
318.3633138788381
 30
0.0
 10
111.1703246135713
 20
318.1627887895384
 30
0.0
 10
111.1652210655334
 20
318.0540866765338
 30
0.0
 10
111.1455102802107
 20
317.8622667820047
 30
0.0
 10
111.130225389013
 20
317.7786024853212
 30
0.0
 10
111.0937245149024
 20
317.6245284478061
 30
0.0
 10
111.07231951887
 20
317.5542273757375
 30
0.0
 10
111.0023828547589
 20
317.3586966380054
 30
0.0
 10
110.948332992341
 20
317.2483022325006
 30
0.0
 10
110.8317107125531
 20
317.0499048024766
 30
0.0
 10
110.7689718403834
 20
316.9623623989532
 30
0.0
 10
110.5711008440498
 20
316.7246414409001
 30
0.0
 10
110.4264619126703
 20
316.5989608615576
 30
0.0
 10
110.1184952002213
 20
316.3943872417176
 30
0.0
 10
109.9549363476039
 20
316.3160816414138
 30
0.0
 10
109.7838757179427
 20
316.2605006735869
 30
0.0
  0
LINE
  5
294
330
1F
100
AcDbEntity
  8
0
  6
Continuous
 62
     7
370
    15
100
AcDbLine
 10
107.1540280003
 20
319.611860245
 30
0.0
 11
108.5478081125
 21
320.0647270228
 31
0.0
  0
ARC
  5
295
330
1F
100
AcDbEntity
  8
0
  6
Continuous
 62
     7
370
    15
100
AcDbCircle
 10
162.9005348999
 20
335.6220738884
 30
0.0
 40
58.00000000000002
100
AcDbArc
 50
163.9761082857
 51
196.0238917143
  0
LINE
  5
296
330
1F
100
AcDbEntity
  8
0
  6
Continuous
 62
     7
370
    15
100
AcDbLine
 10
108.5478081125
 20
351.1794207539
 30
0.0
 11
107.1540280003
 21
351.6322875317
 31
0.0
  0
SPLINE
  5
297
330
1F
100
AcDbEntity
  8
0
  6
Continuous
 62
     7
370
    15
100
AcDbSpline
210
0.0
220
0.0
230
1.0
 70
     8
 71
     3
 72
    40
 73
    36
 74
     0
 42
0.00000001
 43
0.00000001
 12
1.0
 22
0.0
 32
0.0
 13
1.0
 23
0.0
 33
0.0
 40
0.0
 40
0.0
 40
0.0
 40
0.0
 40
0.1250000000000019
 40
0.1250000000000019
 40
0.2500000000000037
 40
0.2500000000000037
 40
0.3125000000000046
 40
0.3125000000000046
 40
0.3750000000000054
 40
0.3750000000000054
 40
0.4062500000000059
 40
0.4062500000000059
 40
0.4375000000000064
 40
0.4375000000000064
 40
0.4687500000000069
 40
0.4687500000000069
 40
0.4843750000000071
 40
0.4843750000000071
 40
0.5000000000000073
 40
0.5000000000000073
 40
0.5156250000000075
 40
0.5156250000000075
 40
0.5312500000000078
 40
0.5312500000000078
 40
0.5625000000000072
 40
0.5625000000000072
 40
0.6250000000000063
 40
0.6250000000000063
 40
0.6875000000000053
 40
0.6875000000000053
 40
0.7500000000000043
 40
0.7500000000000043
 40
0.8750000000000022
 40
0.8750000000000022
 40
1.0
 40
1.0
 40
1.0
 40
1.0
 10
109.7838757179431
 20
354.9836471031366
 30
0.0
 10
109.9563595421573
 20
354.9276037113679
 30
0.0
 10
110.1204312894917
 20
354.8488694903691
 30
0.0
 10
110.4304635621567
 20
354.6421260525784
 30
0.0
 10
110.5765665483697
 20
354.5145235747467
 30
0.0
 10
110.7757496968563
 20
354.272792730243
 30
0.0
 10
110.8388339667069
 20
354.1836930257226
 30
0.0
 10
110.9558138262712
 20
353.9813436509235
 30
0.0
 10
111.0098475413724
 20
353.8684563561807
 30
0.0
 10
111.0785898638352
 20
353.6700029339267
 30
0.0
 10
111.0994551296738
 20
353.598896541247
 30
0.0
 10
111.1348795136117
 20
353.4412769122262
 30
0.0
 10
111.1495262388592
 20
353.3550512411031
 30
0.0
 10
111.1668466764386
 20
353.1576594774586
 30
0.0
 10
111.1704597527151
 20
353.0464860661527
 30
0.0
 10
111.1520336555278
 20
352.8366420995183
 30
0.0
 10
111.1418506953623
 20
352.7601549630032
 30
0.0
 10
111.1055635725083
 20
352.5861805243671
 30
0.0
 10
111.0789676738059
 20
352.4905593316401
 30
0.0
 10
111.013224854278
 20
352.3092144403882
 30
0.0
 10
110.9753701321965
 20
352.2260674282765
 30
0.0
 10
110.902411753364
 20
352.086274924161
 30
0.0
 10
110.8659500473963
 20
352.0262546553125
 30
0.0
 10
110.7610770534607
 20
351.8686218678015
 30
0.0
 10
110.6954335787093
 20
351.7895719845591
 30
0.0
 10
110.5037676142143
 20
351.5831271307855
 30
0.0
 10
110.3875814004683
 20
351.492320862878
 30
0.0
 10
110.1627906427629
 20
351.3424713035574
 30
0.0
 10
110.0549269019694
 20
351.286370176722
 30
0.0
 10
109.8444433705272
 20
351.196703663714
 30
0.0
 10
109.7424939304723
 20
351.1637416396978
 30
0.0
 10
109.4446021276236
 20
351.0905255531093
 30
0.0
 10
109.2558760370853
 20
351.0752698525465
 30
0.0
 10
108.891831800232
 20
351.0920314071013
 30
0.0
 10
108.7166744907702
 20
351.124552904736
 30
0.0
 10
108.5478077404433
 20
351.179421037956
 30
0.0
  0
LINE
  5
298
330
1F
100
AcDbEntity
  8
0
  6
Continuous
 62
     7
370
    15
100
AcDbLine
 10
108.3900942225
 20
355.4365130063
 30
0.0
 11
109.7838743347
 21
354.9836462285
 31
0.0
  0
ARC
  5
299
330
1F
100
AcDbEntity
  8
0
  6
Continuous
 62
     7
370
    15
100
AcDbCircle
 10
162.9005348999
 20
335.6220738884
 30
0.0
 40
58.00000000000001
100
AcDbArc
 50
127.9761082857
 51
160.0238917143
  0
LINE
  5
29A
330
1F
100
AcDbEntity
  8
0
  6
Continuous
 62
     7
370
    15
100
AcDbLine
 10
128.0726357121
 20
380.1559636291
 30
0.0
 11
127.2112293858
 21
381.34158197
 31
0.0
  0
SPLINE
  5
29B
330
1F
100
AcDbEntity
  8
0
  6
Continuous
 62
     7
370
    15
100
AcDbSpline
210
0.0
220
0.0
230
1.0
 70
     8
 71
     3
 72
    42
 73
    38
 74
     0
 42
0.00000001
 43
0.00000001
 12
1.0
 22
0.0
 32
0.0
 13
1.0
 23
0.0
 33
0.0
 40
0.0
 40
0.0
 40
0.0
 40
0.0
 40
0.1250000000000029
 40
0.1250000000000029
 40
0.2500000000000058
 40
0.2500000000000058
 40
0.3125000000000061
 40
0.3125000000000061
 40
0.3750000000000064
 40
0.3750000000000064
 40
0.4062500000000068
 40
0.4062500000000068
 40
0.4375000000000072
 40
0.4375000000000072
 40
0.4687500000000076
 40
0.4687500000000076
 40
0.4843750000000075
 40
0.4843750000000075
 40
0.5000000000000074
 40
0.5000000000000074
 40
0.5156250000000073
 40
0.5156250000000073
 40
0.5312500000000072
 40
0.5312500000000072
 40
0.5625000000000067
 40
0.5625000000000067
 40
0.593750000000006
 40
0.593750000000006
 40
0.6250000000000054
 40
0.6250000000000054
 40
0.6875000000000046
 40
0.6875000000000046
 40
0.7500000000000037
 40
0.7500000000000037
 40
0.8750000000000019
 40
0.8750000000000019
 40
1.0
 40
1.0
 40
1.0
 40
1.0
 10
131.3087021340949
 20
382.5071045751311
 30
0.0
 10
131.4143984126146
 20
382.3616261283155
 30
0.0
 10
131.5001887788615
 20
382.2030824616214
 30
0.0
 10
131.6289828508033
 20
381.8577446973035
 30
0.0
 10
131.6724375691299
 20
381.6707024435101
 30
0.0
 10
131.6930819694489
 20
381.3623591513218
 30
0.0
 10
131.6924670372001
 20
381.2549853713797
 30
0.0
 10
131.6707202675378
 20
381.0274747010538
 30
0.0
 10
131.649933654858
 20
380.9075607895784
 30
0.0
 10
131.5934006180862
 20
380.7116729513331
 30
0.0
 10
131.5702776041531
 20
380.6436731644575
 30
0.0
 10
131.5109950166023
 20
380.4993715710638
 30
0.0
 10
131.4751513384437
 20
380.4232737188789
 30
0.0
 10
131.3793911578383
 20
380.2556475895743
 30
0.0
 10
131.3208616268152
 20
380.1654054570907
 30
0.0
 10
131.1954546342627
 20
380.0124570048264
 30
0.0
 10
131.1468512500512
 20
379.9580475617877
 30
0.0
 10
131.027634426425
 20
379.8417503320699
 30
0.0
 10
130.9560616985442
 20
379.7796477573391
 30
0.0
 10
130.7985513941259
 20
379.6635512526885
 30
0.0
 10
130.7151556519752
 20
379.6117702704472
 30
0.0
 10
130.5662105373506
 20
379.5313708281781
 30
0.0
 10
130.4976542365119
 20
379.5003409037734
 30
0.0
 10
130.3109863186358
 20
379.4254424606351
 30
0.0
 10
130.2059807349036
 20
379.3966549767799
 30
0.0
 10
130.0173872974818
 20
379.3560445696684
 30
0.0
 10
129.9330729166012
 20
379.34469970179
 30
0.0
 10
129.7752251024071
 20
379.3317538318672
 30
0.0
 10
129.7017373933509
 20
379.3303667385646
 30
0.0
 10
129.494125926546
 20
379.3364039916802
 30
0.0
 10
129.3724168107757
 20
379.3536669549521
 30
0.0
 10
129.1476651301194
 20
379.4032213458152
 30
0.0
 10
129.0450098767493
 20
379.435813948095
 30
0.0
 10
128.7577504566014
 20
379.5504719952892
 30
0.0
 10
128.5935099688914
 20
379.6491511871057
 30
0.0
 10
128.3037465245822
 20
379.8787379222468
 30
0.0
 10
128.1786740573663
 20
380.0100121636913
 30
0.0
 10
128.0726341565951
 20
380.1559635659612
 30
0.0
  0
LINE
  5
29C
330
1F
100
AcDbEntity
  8
0
  6
Continuous
 62
     7
370
    15
100
AcDbLine
 10
130.4472996611
 20
383.6927244361
 30
0.0
 11
131.3087022621
 21
382.5071060951
 31
0.0
  0
ARC
  5
29D
330
1F
100
AcDbEntity
  8
0
  6
Continuous
 62
     7
370
    15
100
AcDbCircle
 10
162.9005348999
 20
335.6220738884
 30
0.0
 40
57.99999999999999
100
AcDbArc
 50
16.0238917143
 51
19.9761082857
  0
ARC
  5
29E
330
1F
100
AcDbEntity
  8
0
  6
Continuous
 62
     7
370
    15
100
AcDbCircle
 10
162.9005348999
 20
335.6220738884
 30
0.0
 40
57.99999999999998
100
AcDbArc
 50
340.0238917143
 51
343.9761082857
  0
ARC
  5
29F
330
1F
100
AcDbEntity
  8
0
  6
Continuous
 62
     7
370
    15
100
AcDbCircle
 10
162.9005348999
 20
335.6220738884
 30
0.0
 40
58.0
100
AcDbArc
 50
52.0238917143
 51
55.9761082857
  0
ARC
  5
2A0
330
1F
100
AcDbEntity
  8
0
  6
Continuous
 62
     7
370
    15
100
AcDbCircle
 10
162.9005348999
 20
335.6220738884
 30
0.0
 40
58.00000000000001
100
AcDbArc
 50
304.0238917143
 51
307.9761082857
  0
ARC
  5
2A1
330
1F
100
AcDbEntity
  8
0
  6
Continuous
 62
     7
370
    15
100
AcDbCircle
 10
162.9005348999
 20
335.6220738884
 30
0.0
 40
58.00000000000003
100
AcDbArc
 50
268.0238917143
 51
271.9761082857
  0
ARC
  5
2A2
330
1F
100
AcDbEntity
  8
0
  6
Continuous
 62
     7
370
    15
100
AcDbCircle
 10
162.9005348999
 20
335.6220738884
 30
0.0
 40
58.00000000000003
100
AcDbArc
 50
88.0238917143
 51
91.9761082857
  0
ARC
  5
2A3
330
1F
100
AcDbEntity
  8
0
  6
Continuous
 62
     7
370
    15
100
AcDbCircle
 10
162.9005348999
 20
335.6220738884
 30
0.0
 40
58.00000000000005
100
AcDbArc
 50
232.0238917143
 51
235.9761082857
  0
ARC
  5
2A4
330
1F
100
AcDbEntity
  8
0
  6
Continuous
 62
     7
370
    15
100
AcDbCircle
 10
162.9005348999
 20
335.6220738884
 30
0.0
 40
58.00000000000004
100
AcDbArc
 50
124.0238917143
 51
127.9761082857
  0
ARC
  5
2A5
330
1F
100
AcDbEntity
  8
0
  6
Continuous
 62
     7
370
    15
100
AcDbCircle
 10
162.9005348999
 20
335.6220738884
 30
0.0
 40
58.00000000000002
100
AcDbArc
 50
160.0238917143
 51
163.9761082857
  0
ARC
  5
2A6
330
1F
100
AcDbEntity
  8
0
  6
Continuous
 62
     7
370
    15
100
AcDbCircle
 10
162.9005348999
 20
335.6220738884
 30
0.0
 40
58.00000000000001
100
AcDbArc
 50
196.0238917143
 51
199.9761082857
  0
DIMENSION
  5
2A7
330
1F
100
AcDbEntity
  8
RIQUADRO
100
AcDbDimension
  2
_D_12
 10
104.9005348999
 20
335.6220738884
 30
0.0
 11
68.047787853
 21
335.6220938884
 31
0.0
 70
   163
  1
<>
 71
     1
 42
-1.0
  3
SLDDIMSTYLE5
100
AcDbDiametricDimension
 15
220.9005348999
 25
335.6220738884
 35
0.0
 40
0.0
  0
ENDSEC
  0
SECTION
  2
OBJECTS
  0
DICTIONARY
  5
C
330
0
100
AcDbDictionary
281
     1
  3
ACAD_GROUP
350
D
  3
ACAD_LAYOUT
350
1A
  3
ACAD_MLINESTYLE
350
17
  3
ACAD_PLOTSETTINGS
350
19
  3
ACAD_PLOTSTYLENAME
350
E
  0
DICTIONARY
  5
D
102
{ACAD_REACTORS
330
C
102
}
330
C
100
AcDbDictionary
281
     1
  0
DICTIONARY
  5
1A
102
{ACAD_REACTORS
330
C
102
}
330
C
100
AcDbDictionary
281
     1
  3
Layout1
350
1E
  3
Layout2
350
26
  3
Model
350
22
  0
DICTIONARY
  5
17
102
{ACAD_REACTORS
330
C
102
}
330
C
100
AcDbDictionary
281
     1
  3
Standard
350
18
  0
DICTIONARY
  5
19
102
{ACAD_REACTORS
330
C
102
}
330
C
100
AcDbDictionary
281
     1
  0
ACDBDICTIONARYWDFLT
  5
E
102
{ACAD_REACTORS
330
C
102
}
330
C
100
AcDbDictionary
281
     1
  3
Normal
350
F
100
AcDbDictionaryWithDefault
340
F
  0
LAYOUT
  5
1E
102
{ACAD_REACTORS
330
1A
102
}
330
1A
100
AcDbPlotSettings
  1

  2
none_device
  4

  6

 40
0.0
 41
0.0
 42
0.0
 43
0.0
 44
0.0
 45
0.0
 46
0.0
 47
0.0
 48
0.0
 49
0.0
140
0.0
141
0.0
142
1.0
143
1.0
 70
   688
 72
     0
 73
     0
 74
     5
  7

 75
    16
147
1.0
148
0.0
149
0.0
100
AcDbLayout
  1
Layout1
 70
     1
 71
     1
 10
0.0
 20
0.0
 11
420.0
 21
297.0
 12
0.0
 22
0.0
 32
0.0
 14
1.0000000000E+20
 24
1.0000000000E+20
 34
1.0000000000E+20
 15
-1.0000000000E+20
 25
-1.0000000000E+20
 35
-1.0000000000E+20
146
0.0
 13
0.0
 23
0.0
 33
0.0
 16
1.0
 26
0.0
 36
0.0
 17
0.0
 27
1.0
 37
0.0
 76
     0
330
1B
  0
LAYOUT
  5
26
102
{ACAD_REACTORS
330
1A
102
}
330
1A
100
AcDbPlotSettings
  1

  2
none_device
  4

  6

 40
0.0
 41
0.0
 42
0.0
 43
0.0
 44
0.0
 45
0.0
 46
0.0
 47
0.0
 48
0.0
 49
0.0
140
0.0
141
0.0
142
1.0
143
1.0
 70
   688
 72
     0
 73
     0
 74
     5
  7

 75
    16
147
1.0
148
0.0
149
0.0
100
AcDbLayout
  1
Layout2
 70
     1
 71
     2
 10
0.0
 20
0.0
 11
0.0
 21
0.0
 12
0.0
 22
0.0
 32
0.0
 14
0.0
 24
0.0
 34
0.0
 15
0.0
 25
0.0
 35
0.0
146
0.0
 13
0.0
 23
0.0
 33
0.0
 16
1.0
 26
0.0
 36
0.0
 17
0.0
 27
1.0
 37
0.0
 76
     0
330
23
  0
LAYOUT
  5
22
102
{ACAD_REACTORS
330
1A
102
}
330
1A
100
AcDbPlotSettings
  1

  2
none_device
  4

  6

 40
0.0
 41
0.0
 42
0.0
 43
0.0
 44
0.0
 45
0.0
 46
0.0
 47
0.0
 48
0.0
 49
0.0
140
0.0
141
0.0
142
1.0
143
1.0
 70
  1712
 72
     0
 73
     0
 74
     0
  7

 75
     0
147
1.0
148
0.0
149
0.0
100
AcDbLayout
  1
Model
 70
     1
 71
     0
 10
0.0
 20
0.0
 11
840.0
 21
594.0
 12
0.0
 22
0.0
 32
0.0
 14
0.0
 24
0.0
 34
0.0
 15
840.0
 25
594.0
 35
0.0
146
0.0
 13
0.0
 23
0.0
 33
0.0
 16
1.0
 26
0.0
 36
0.0
 17
0.0
 27
1.0
 37
0.0
 76
     0
330
1F
331
29
  0
MLINESTYLE
  5
18
102
{ACAD_REACTORS
330
17
102
}
330
17
100
AcDbMlineStyle
  2
Standard
 70
     0
  3

 62
   256
 51
90.0
 52
90.0
 71
     2
 49
0.5
 62
   256
  6
BYLAYER
 49
-0.5
 62
   256
  6
BYLAYER
  0
ACDBPLACEHOLDER
  5
F
102
{ACAD_REACTORS
330
E
102
}
330
E
  0
ENDSEC
  0
EOF
